<?xml version="1.0" standalone="no"?>
<!DOCTYPE svg PUBLIC "-//W3C//DTD SVG 1.1//EN" "http://www.w3.org/Graphics/SVG/1.1/DTD/svg11.dtd" >
<svg xmlns="http://www.w3.org/2000/svg" xmlns:xlink="http://www.w3.org/1999/xlink" version="1.1">
<metadata>
Created by FontForge 20170731 at Fri Aug 20 05:33:23 2021
 By Aleksey,,,
*1991, 1992, 1993 The Font Bureau, Inc. Designed by Tobias Frere-Jones.
</metadata>
<defs>
<font id="GarageGothic-Bold" horiz-adv-x="811" >
  <font-face 
    font-family="GarageGothic-Bold"
    font-weight="500"
    font-stretch="normal"
    units-per-em="2048"
    panose-1="0 0 0 0 0 0 0 0 0 0"
    ascent="1638"
    descent="-410"
    x-height="981"
    cap-height="1432"
    bbox="-59 -410 1602.6 1797.53"
    underline-thickness="147"
    underline-position="-419"
    unicode-range="U+0020-FB02"
  />
<missing-glyph horiz-adv-x="573" 
 />
    <glyph glyph-name=".notdef" horiz-adv-x="573" 
 />
    <glyph glyph-name=".null" horiz-adv-x="0" 
 />
    <glyph glyph-name="nonmarkingreturn" horiz-adv-x="682" 
 />
    <glyph glyph-name="space" unicode=" " horiz-adv-x="409" 
 />
    <glyph glyph-name="exclam" unicode="!" horiz-adv-x="362" 
d="M291 424q0 -18 -6.5 -24.5t-29 -9.5t-79.5 -3q-52 0 -72.5 2.5t-26 8.5t-5.5 22v977q0 25 16 31t88 6q83 0 99 -5.5t16 -33.5v-971zM301 117q-3 -51 -35.5 -85.5t-81.5 -37.5q-68 -4 -92.5 27t-30.5 88q-6 60 31.5 106.5t91.5 40.5q62 -8 89.5 -27.5t28 -47t-0.5 -64.5z
" />
    <glyph glyph-name="quotedbl" unicode="&#x22;" horiz-adv-x="491" 
d="M442 1399q0 -74 -1 -137t-1 -117q0 -14 -9.5 -32.5t-29.5 -14.5q-25 5 -88 0q-18 -1 -24 13t-6 50v176q-3 95 32 95q72 0 95 6q15 4 23.5 -3.5t8.5 -35.5zM211 1399q0 -74 -1 -137t-1 -117q0 -14 -9.5 -32.5t-29.5 -14.5q-25 5 -88 0q-18 -1 -24.5 13.5t-6.5 49.5v176
q-3 89 33 95q35 6 94 6q9 0 12.5 -0.5t9.5 -3.5t8.5 -11.5t2.5 -23.5z" />
    <glyph glyph-name="numbersign" unicode="#" horiz-adv-x="987" 
d="M958 1159q-22 -4 -60 -5.5t-63 -4t-32 -10.5q-9 -8 -35 -158.5t-20 -165.5q1 -4 21.5 -4.5t64 1t67.5 1.5q9 0 17.5 -25t8.5 -46.5t-9 -26.5q-25 -5 -69.5 -8.5t-78.5 -6.5t-41 -6q-8 -5 -16 -48t-19 -100t-22 -85q-6 -14 -66.5 -12.5t-64.5 18.5q-1 14 11 67t22.5 100
t7.5 52q-6 12 -137 12.5t-142 -12.5q-6 -5 -12 -41.5t-15.5 -86t-21.5 -77.5q-6 -16 -67.5 -17t-61.5 17q-3 26 7 75t18.5 87t5.5 43q-7 10 -23 11t-39 -1t-59 6q-19 2 -17 54t21 57q24 7 53 4t42.5 -5.5t33.5 9.5q13 9 44.5 156.5t23.5 159.5q-8 9 -34.5 9.5t-58 -1
t-67.5 5.5q-20 5 -18 53t20 56q30 8 97 2.5t73 5.5q3 3 6 7.5t6 12t5.5 15t5 19t4 20t4.5 23t4 23t4 24.5t4 24q5 16 69 15t64 -19q-2 -20 -11 -65t-12 -64.5t2 -34.5q11 -13 135.5 -11.5t135.5 11.5q7 4 12 28.5t10.5 69t10.5 70.5q3 16 63.5 15t60.5 -19q3 -23 -3 -64.5
t-10.5 -71.5t-0.5 -32q4 -4 12.5 -6t22.5 -2t26.5 0.5t32 2t31.5 1.5q14 2 22.5 -47.5t-6.5 -53.5zM657 1139q-5 13 -138.5 13t-143.5 -13q-11 -8 -38 -162t-18 -164q6 -12 136.5 -12t140.5 12q10 16 36.5 164.5t24.5 161.5z" />
    <glyph glyph-name="dollar" unicode="$" horiz-adv-x="696" 
d="M647 287q0 -98 -46.5 -167t-131.5 -102q-10 -2 -10 -26v-103q0 -26 -117 -26q-102 0 -102 26v99q0 28 -13 32q-77 22 -126.5 94.5t-49.5 172.5v108q0 18 19 22.5t86 4.5q72 0 95 -3.5t23 -19.5v-80q0 -61 16.5 -90.5t59.5 -29.5q78 0 78 106q0 72 -4 101q-4 35 -16.5 68
t-37.5 68t-42.5 57t-55.5 63t-53 59q-80 96 -119.5 170.5t-42.5 161.5q-2 29 -2 102q0 86 45 156.5t127 101.5q13 5 13 31v112q0 8 8.5 13t26 7t30.5 2.5t37 0.5q115 0 115 -16v-125q0 -23 14 -31q77 -33 119.5 -101.5t42.5 -150.5v-96q0 -11 -20.5 -14t-77.5 -3
q-119 0 -119 19v90q0 41 -22 66.5t-50 25.5q-32 0 -53 -26.5t-21 -63.5v-88q3 -57 37 -108.5t121 -145.5q45 -47 74 -82.5t63 -87.5t53.5 -110t24.5 -121q4 -37 4 -123z" />
    <glyph glyph-name="percent" unicode="%" horiz-adv-x="798" 
d="M356 1069q0 -65 -41.5 -107t-107.5 -42q-64 0 -107 43t-43 106v217q0 63 43 105.5t107 42.5q66 0 107.5 -41.5t41.5 -106.5v-217zM711 1393q-245 -684 -500 -1360q-11 -33 -84 -33q-10 0 -17.5 0.5t-17.5 1.5t-15 3t-11 5.5t-5.5 9t2.5 13.5q459 1251 500 1366
q11 33 72 33q36 0 59.5 -9.5t16.5 -29.5zM737 147q0 -63 -41.5 -105t-107.5 -42q-63 0 -105.5 42.5t-42.5 104.5v220q0 62 42.5 103.5t105.5 41.5q66 0 107.5 -41t41.5 -104v-220zM240 1092v174q0 55 -33 55q-35 0 -35 -55v-174q0 -56 35 -56q33 0 33 56zM623 170v176
q0 55 -35 55q-33 0 -33 -55v-176q0 -55 33 -55q35 0 35 55z" />
    <glyph glyph-name="ampersand" unicode="&#x26;" horiz-adv-x="851" 
d="M801 6q-6 -6 -142 -6q-4 0 -18 -1t-24 0t-19 5q-5 3 -9.5 11t-8 18.5t-5.5 13.5q0 1 -1 3q-12 31 -19 33q-3 0 -6 -1q-5 -3 -29 -23t-40 -29.5t-54 -19.5t-84 -10q-41 0 -85 14.5t-88 45.5t-72.5 90t-28.5 137q0 77 11 146t23 110t35 85t31 55.5t27 37.5q7 14 2 29
q-25 47 -41 91.5t-23 59.5q-45 103 -45 250q0 73 25.5 130t67 89t88 48t93.5 16q39 0 82.5 -16t86.5 -48t70.5 -89t27.5 -130q0 -67 -18 -130.5t-29.5 -84.5t-36.5 -62q-13 -22 -26.5 -42t-22 -31.5t-25.5 -33.5t-27 -36q-8 -19 -4 -29q6 -13 23.5 -48t30.5 -66
q16 -38 53 -105q3 -5 4.5 -6.5t2 -1.5t2.5 1.5t3 2.5q8 12 8 78q0 26 -1 47t-1 31q0 6 5.5 9.5t23.5 5t55 1.5q105 0 105 -12v-57q0 -103 -17 -195q-4 -24 -16.5 -55.5t-22.5 -54t-10 -27.5t10.5 -26.5t27 -53t22.5 -43.5q5 -10 22.5 -45.5t25.5 -54t5 -21.5zM418 1163
q0 38 -19.5 64t-50.5 26q-28 0 -50.5 -25.5t-23.5 -66.5q-5 -104 37 -231q3 -12 12 -23.5t17 -11.5q16 0 33 29q37 68 39 118q6 38 6 121zM446 276q0 1 -71 150q-1 3 -7 16t-7 15.5t-5.5 12.5t-7 14t-7 11.5t-9 13.5t-10.5 13q-14 7 -21 2q-28 -33 -37 -71q-12 -54 -12 -152
q0 -31 24.5 -67.5t59.5 -36.5q48 0 72 18q17 14 32 31q8 18 6 30z" />
    <glyph glyph-name="quotesingle" unicode="'" horiz-adv-x="260" 
d="M211 1399q0 -74 -1 -137t-1 -117q0 -14 -9.5 -32.5t-29.5 -14.5q-25 5 -88 0q-18 -1 -24.5 13.5t-6.5 49.5v176q-2 42 7 68.5t26 26.5q71 0 94 6q15 4 24 -3.5t9 -35.5z" />
    <glyph glyph-name="parenleft" unicode="(" horiz-adv-x="428" 
d="M408 1522q0 -92 -13 -92q-58 0 -89.5 -33.5t-31.5 -89.5v-1174q0 -57 29.5 -91t91.5 -34q11 0 11 -88v-16.5v-19v-18.5t-1 -18l-2 -14t-3 -10.5t-5 -3.5q-323 0 -323 303v1190q0 301 323 301q3 0 5.5 -3t4 -10t2.5 -13.5t1 -16.5v-17v-17.5v-14.5z" />
    <glyph glyph-name="parenright" unicode=")" horiz-adv-x="428" 
d="M356 123q0 -303 -323 -303q-4 0 -6.5 6.5t-3 19.5t-1 23t0 27.5t0.5 23.5q0 88 10 88q61 0 90 33.5t29 91.5v1174q0 56 -31 89.5t-88 33.5q-13 0 -13 92q0 5 -0.5 21t0 25.5t1.5 21.5t4 18t8 6q157 0 240 -75t83 -226v-1190z" />
    <glyph glyph-name="asterisk" unicode="*" horiz-adv-x="731" 
d="M618 1257q-35 -13 -53.5 -20t-40 -16.5t-30.5 -17.5t-9 -15q0 -12 37 -36.5t92 -49.5q17 -12 12 -36t-28 -43.5t-41 -10.5q-67 36 -90 44t-31 -1q-11 -8 -12 -36.5t2 -70.5q2 -16 -31 -23t-65.5 0t-30.5 23q11 101 -10 119q-3 3 -7.5 3t-11.5 -2.5t-14.5 -6t-17.5 -9
t-19.5 -10.5t-22.5 -12.5t-24 -13.5q-17 -8 -40.5 18.5t-29.5 55t9 38.5q13 5 39 13t39.5 13t29.5 12t23.5 12.5t7.5 11.5q0 8 -18 19.5t-56 30.5t-55 28q-18 15 -14.5 41t25.5 45.5t40 7.5q60 -36 83.5 -47t33.5 -4q4 2 6 6.5t2.5 13t0.5 16t-1.5 21t-2.5 22t-3.5 25.5
t-3.5 25q-1 16 38 22t77.5 -1.5t37.5 -24.5q-1 -20 -4 -44t-5 -37.5t-2.5 -27t2 -20.5t9.5 -9q5 -2 13.5 1t20.5 10.5t23 15.5t29 21t31 22q15 11 37 -16t29.5 -56t-5.5 -39z" />
    <glyph glyph-name="plus" unicode="+" horiz-adv-x="501" 
d="M438 463q-11 -5 -43 -5.5t-59.5 -1t-30.5 -5.5q-4 -4 -4 -29t2 -61.5t2 -47.5q0 -8 -49.5 -11.5t-52.5 3.5q-6 14 -7 77t-6 69t-32.5 6t-54.5 -2t-48 2q-9 2 -8 53.5t10 54.5q14 4 72.5 1.5t58.5 4.5q4 4 4.5 29t1 56.5t3.5 45.5q2 9 53.5 8t54.5 -10q3 -13 2 -45.5
t-2 -54t4 -31.5q4 -4 24 -5t55 0t42 1q8 0 11.5 -49.5t-3.5 -52.5z" />
    <glyph glyph-name="comma" unicode="," horiz-adv-x="331" 
d="M274 131q3 -75 -22 -137q-12 -31 -25.5 -59t-34 -62t-45 -53.5t-47.5 -16.5q-12 2 -15.5 16t1 35.5t10.5 42.5t13 44t8 34q4 17 0 25.5t-17 16.5t-16 10q-33 26 -33 82q0 59 26.5 96.5t78.5 36.5q54 -1 85 -32t33 -79z" />
    <glyph glyph-name="hyphen" unicode="-" horiz-adv-x="462" 
d="M428 469q4 -15 -3.5 -24t-35.5 -9q-74 0 -160.5 1t-140.5 1q-14 0 -32.5 9.5t-14.5 29.5q5 25 0 88q-1 18 13.5 24.5t49.5 6.5h224q42 2 68 -7t26 -26q0 -71 6 -94z" />
    <glyph glyph-name="period" unicode="." horiz-adv-x="331" 
d="M283 119q0 -119 -113 -127q-60 -5 -88.5 31.5t-30.5 91.5q-2 58 30 98.5t89 34.5q72 -7 93.5 -38.5t19.5 -90.5z" />
    <glyph glyph-name="slash" unicode="/" horiz-adv-x="524" 
d="M483 1395q-38 -222 -77 -444.5t-86 -487t-76 -430.5q-6 -33 -121 -33q-20 0 -31 0.5t-26 3t-21 9.5t-4 18q41 235 119 680.5t121 695.5q5 29 102 29q47 0 75.5 -8.5t24.5 -32.5z" />
    <glyph glyph-name="zero" unicode="0" horiz-adv-x="731" 
d="M668 295q0 -144 -80.5 -219.5t-216.5 -75.5q-131 0 -214 80t-83 215v846q0 132 84 212.5t213 80.5q132 0 214.5 -80.5t82.5 -212.5v-846zM446 340v760q0 51 -17.5 87t-57.5 36q-42 0 -60 -36t-18 -87v-760q0 -123 78 -123q43 0 59 32t16 91z" />
    <glyph glyph-name="one" unicode="1" horiz-adv-x="626" 
d="M586 92q0 -92 -23 -92h-493q-18 0 -23.5 22.5t-5.5 67.5q0 100 33 100h86q29 0 37 5q10 6 10 61v846q0 49 -8 49q-10 0 -24.5 -8.5t-34.5 -24.5t-23 -18q-2 -2 -7.5 -7t-9.5 -8.5t-9.5 -8t-10 -6.5t-8.5 -2.5t-7 3t-4 10.5q-14 95 -4 148q0 3 2 7t5.5 8.5t7 8.5t9.5 10
t10 9.5t12 10t12 10t12.5 10.5t11.5 10q17 14 36.5 58t27.5 46q54 17 198 17q6 0 10 -2t6.5 -6.5t4 -8.5t2 -11.5t0.5 -11v-12v-10.5v-1116q0 -47 6 -55q9 -11 35 -11h102q19 0 19 -98z" />
    <glyph glyph-name="two" unicode="2" horiz-adv-x="692" 
d="M641 111q0 -111 -35 -111h-487q-5 0 -15 -0.5t-13.5 0t-9.5 2.5t-11 6q-4 3 -6.5 5.5t-4.5 5.5t-2.5 4.5t-1 6t-0.5 6.5v9.5v11.5v303q0 121 66 207q34 42 93.5 112t107.5 130q33 43 49.5 75.5t34.5 86.5q20 66 20 147q0 51 -17 79t-61 28q-72 0 -72 -107v-71
q0 -27 -112 -27q-24 0 -36.5 0.5t-30.5 3t-26 9t-8 16.5v114q0 114 78.5 192.5t206.5 78.5q136 0 213.5 -75t77.5 -194v-151q0 -92 -42.5 -171.5t-109.5 -158.5q-119 -141 -176 -209q-37 -47 -37 -104v-95q0 -35 6 -43q2 -3 5 -6q10 -10 47 -10h278q31 0 31 -106z" />
    <glyph glyph-name="three" unicode="3" horiz-adv-x="692" 
d="M641 287q0 -127 -83.5 -207t-213.5 -80q-126 0 -209.5 81.5t-83.5 205.5v116q0 41 107 41q118 0 118 -38v-76q0 -46 16.5 -80.5t53.5 -34.5t54.5 34.5t17.5 80.5v256q0 39 -16 68t-50 32q-31 1 -37.5 0.5t-13 -8t-14.5 -10.5q-10 -3 -23.5 4t-32.5 22.5t-26 20.5
q-12 6 -36 33.5t-19 35.5q53 95 89 155t75.5 122.5t68.5 109.5q11 21 11.5 31t-7.5 19q-7 10 -289 10q-26 0 -26 100q0 52 5 77.5t21 25.5h514q18 0 23.5 -13.5t5.5 -46.5q0 -7 0.5 -32t0.5 -43t-1 -41.5t-4.5 -41.5t-9.5 -28q-34 -63 -60.5 -109.5t-62.5 -107t-62 -105.5
q-14 -19 9 -24q26 -4 39.5 -7t35.5 -13t39 -25q76 -66 76 -217v-293z" />
    <glyph glyph-name="four" unicode="4" horiz-adv-x="677" 
d="M647 348q0 -80 -12 -80h-9.5h-8h-5.5t-5 -0.5l-4 -1t-3.5 -1.5t-3.5 -2t-4 -3q-6 -6 -6 -24v-211q0 -16 -22.5 -20.5t-69.5 -4.5q-115 0 -115 27v184q0 34 -4 43q-7 10 -56 10h-249q-28 0 -33 8q-6 10 -6 47v179q0 36 4 63q5 23 16 57q149 436 271 773q11 29 33 38t91 9
q83 0 110.5 -6t27.5 -21v-919q0 -25 4 -29q6 -6 47 -6q12 0 12 -109zM387 944v22q0 61 -8 62q-4 0 -7.5 -3.5t-6 -11t-4 -13.5t-4 -16.5t-3.5 -14.5q-20 -84 -80 -312q-2 -6 -8 -26t-8 -33q-4 -28 -4 -35v-67q0 -22 10 -35q4 -6 45 -6q52 0 64 6q6 3 6 37q1 95 4 223t4 223z
" />
    <glyph glyph-name="five" unicode="5" horiz-adv-x="702" 
d="M651 457q0 -126 -65 -236q-29 -52 -87 -100t-130 -80q-74 -25 -169.5 -40t-125.5 1q-11 6 -11 98q0 79 9 88q13 13 31 15t57 4.5t84 15.5q45 14 74 34t61 52q51 51 51 131v135q0 61 -15 91t-55 30q-21 0 -35.5 -5.5t-21 -12.5t-14.5 -21q-15 -21 -45 -30q-16 -5 -76 -6.5
t-100 6.5q-3 1 -4.5 7t-2 17.5t-0.5 20.5v24v21v643q0 40 9 53q2 3 4.5 6t4.5 5t5 3.5t4.5 2.5t5 2t4.5 1.5t5.5 0.5h5.5h7h7h487q35 0 35 -93q0 -104 -31 -104h-272q-35 0 -47 -14t-12 -43v-244q0 -4 -0.5 -14t-0.5 -15.5t0.5 -14.5t2.5 -14t5 -10.5t8.5 -7.5t12.5 -2
q5 0 35.5 12.5t81.5 12.5q58 0 95.5 -18.5t72.5 -57.5q55 -63 55 -162v-188z" />
    <glyph glyph-name="six" unicode="6" horiz-adv-x="710" 
d="M649 315q0 -145 -77.5 -230t-211.5 -85q-141 0 -216.5 87t-75.5 228q0 126 1 315t1 328q0 88 19 149t71 132q59 82 182.5 138t290.5 59q12 0 12 -93q0 -90 -12 -90q-6 -1 -35.5 -4.5t-36.5 -4.5t-32 -5t-34 -6.5t-29 -7.5t-30.5 -10.5t-25.5 -12.5t-27 -16.5t-23 -20.5
q-75 -72 -75 -182v-111q0 -2 -0.5 -10t0 -12t2.5 -9t6 -7q5 -5 18.5 1.5t46.5 16.5t74 10q77 0 135 -55q82 -75 82 -207v-285zM436 356v215q0 119 -78 119q-43 0 -59 -32t-16 -91v-211q0 -34 0.5 -49t4 -38t11.5 -32.5t23 -17.5t38 -8q45 0 60.5 38t15.5 107z" />
    <glyph glyph-name="seven" unicode="7" horiz-adv-x="647" 
d="M616 1223q0 -13 -5.5 -29.5t-13.5 -33.5t-25 -54.5t-33 -75.5q-59 -145 -101 -330q-29 -134 -43 -203.5t-29 -176.5t-22 -209q0 -6 -1 -20t-1.5 -24.5t-1.5 -22.5t-3 -20t-5 -10q-18 -14 -113 -14q-3 0 -15.5 -0.5t-20 0t-18 1t-18 3t-12.5 6.5q-3 3 -5 11t-2 21v22.5
t1.5 27.5t1.5 25q18 283 88 610q36 168 129 422q7 22 6.5 46.5t-8.5 35.5q-6 8 -106 8h-185q-24 0 -24 98q0 24 0.5 36.5t2 29t6 24t11.5 7.5h533q17 0 26 -13q6 -8 6 -53v-145z" />
    <glyph glyph-name="eight" unicode="8" horiz-adv-x="731" 
d="M664 303q0 -139 -82 -221t-217 -82q-130 0 -213.5 84.5t-83.5 218.5v313q0 57 30 105q17 25 66 51q-2 2 -12 8.5t-14 9.5t-11.5 9t-13.5 12.5t-11 13.5q-34 43 -34 109v227q0 120 86 196.5t211 76.5q128 0 213.5 -76t85.5 -199v-231q0 -52 -39 -109q-12 -16 -37 -32.5
t-27 -18.5q3 -2 24 -17.5t33 -29.5q46 -64 46 -127v-291zM442 934v186q0 46 -18.5 77.5t-58.5 31.5t-59 -32.5t-19 -78.5v-184q0 -49 18.5 -83t59.5 -34q77 0 77 117zM442 334v194q0 49 -18 83t-59 34t-59.5 -33.5t-18.5 -81.5v-196q0 -129 78 -129q77 0 77 129z" />
    <glyph glyph-name="nine" unicode="9" horiz-adv-x="710" 
d="M643 481q0 -99 -17.5 -160.5t-70.5 -130.5q-61 -79 -185.5 -133.5t-293.5 -58.5q-13 0 -13 96q0 99 13 99q11 1 42.5 4.5t42 5t36 5.5t37 7t31.5 9t32.5 13t27 17t27.5 22q58 52 68 113q4 18 4 55v109q0 3 0.5 12.5t0.5 14.5t-2.5 11t-8.5 9q-3 2 -15 -6.5t-42.5 -19.5
t-71.5 -11q-83 0 -146 66q-84 84 -84 196v303q0 150 78.5 228t216.5 78q133 0 213 -80.5t80 -225.5v-647zM426 866v221q0 72 -15.5 108t-62.5 36q-24 0 -39.5 -11t-22.5 -33t-9.5 -44.5t-2.5 -55.5v-225q0 -117 76 -117t76 121z" />
    <glyph glyph-name="colon" unicode=":" horiz-adv-x="331" 
d="M272 604q0 -113 -106 -121q-58 -6 -85.5 29t-29.5 88q-2 55 29 94t84 33q68 -7 88 -36.5t20 -86.5zM274 119q-3 -113 -106 -121q-58 -6 -85.5 29t-29.5 88q-2 55 29 94t84 33q68 -7 88 -36.5t20 -86.5z" />
    <glyph glyph-name="semicolon" unicode=";" horiz-adv-x="331" 
d="M272 604q0 -113 -106 -121q-58 -6 -85.5 29t-29.5 88q-2 55 29 94t84 33q68 -7 88 -36.5t20 -86.5zM276 131q3 -75 -22 -137q-12 -31 -25.5 -59t-34 -62t-45 -53.5t-47.5 -16.5q-12 2 -15.5 16t1 35.5t10.5 42.5t13 44t8 34q4 17 0 25.5t-17 16.5t-16 10q-33 26 -33 82
q0 59 26.5 96.5t78.5 36.5q54 -1 85 -32t33 -79z" />
    <glyph glyph-name="less" unicode="&#x3c;" horiz-adv-x="555" 
d="M494 801q-20 -22 -98.5 -104t-125.5 -133.5t-47 -57.5t49 -60t117.5 -127.5t97.5 -107.5q30 -40 -12 -49q-10 -3 -43.5 -20t-44.5 -21q-6 -2 -175 183t-169 202t173.5 201t180.5 180q51 -26 86 -37q17 -4 22.5 -15t-11.5 -34z" />
    <glyph glyph-name="equal" unicode="=" horiz-adv-x="524" 
d="M481 618q-12 -5 -23.5 -7t-28.5 -2.5t-23 -0.5q-101 -9 -267 -4q-59 0 -88 10q-11 3 -11.5 56.5t13.5 58.5t25 5.5t27 -0.5t24 -1q37 1 134 -0.5t112 -1.5q19 0 49 -1t49 -1q8 0 11.5 -54t-3.5 -57zM483 324q-9 -4 -19.5 -6.5t-17.5 -3t-19 -1t-19 -0.5q-101 -9 -269 -4
q-44 0 -88 10q-9 1 -8.5 55t10.5 60q14 5 25.5 6t26.5 -0.5t24 -1.5q37 1 135 -0.5t113 -1.5q10 0 34 1t39 0.5t25 -3.5q8 -12 11.5 -59.5t-3.5 -50.5z" />
    <glyph glyph-name="greater" unicode="&#x3e;" horiz-adv-x="555" 
d="M512 506q0 -20 -160.5 -207t-173.5 -178q-76 38 -86 41q-17 4 -22 14.5t12 34.5q256 283 256 295t-277 295q-17 23 -11.5 34t22.5 15q30 9 86 37q13 9 183.5 -176t170.5 -205z" />
    <glyph glyph-name="question" unicode="?" horiz-adv-x="675" 
d="M635 1018q0 -94 -31 -158.5t-92 -136.5q-18 -21 -31 -40t-21 -42.5t-13 -37.5t-7 -44.5t-2.5 -41.5t0 -50t0.5 -51q0 -33 -112 -29q-73 0 -90 11q-13 8 -13 24q0 20 -1.5 78.5t-0.5 81t10 62.5t27 75q19 38 72.5 103.5t68.5 103.5q7 16 11.5 33.5t6.5 28t3.5 34t1.5 29
v37v34.5q0 52 -17 79.5t-63 27.5q-70 0 -70 -107v-71q0 -27 -112 -27q-48 0 -74.5 5.5t-26.5 23.5v114q0 114 78 192.5t207 78.5q135 0 213 -75.5t78 -193.5v-151zM442 113q-3 -50 -34 -84t-78 -37q-65 -4 -89 27t-30 87q-6 58 30.5 104.5t88.5 37.5q60 -5 86.5 -24
t26.5 -47t-1 -64z" />
    <glyph glyph-name="at" unicode="@" horiz-adv-x="1134" 
d="M1063 735q0 -63 -9.5 -111t-28 -76t-37 -46t-44 -25.5t-41.5 -9.5t-37 -2q-34 0 -60 8.5t-40 21t-23 25t-13.5 21t-6.5 8.5q-1 0 -5 -8.5t-14.5 -21t-26.5 -25t-47 -21t-71 -8.5q-55 0 -99 22.5t-68.5 56.5t-37 70t-12.5 68v119q0 82 60.5 149.5t156.5 67.5q19 0 35 -3
t26.5 -6.5t21.5 -10.5t15.5 -10.5t13 -11.5t9.5 -9q8 -7 11 -4.5t3 16.5q0 20 7.5 29.5t29.5 9.5q30 0 39.5 -1.5t9.5 -8.5v-316q0 -57 25.5 -88t52.5 -31q47 0 73.5 36t26.5 143q0 173 -111 279t-276 106q-162 0 -276.5 -114t-114.5 -278q0 -158 115 -270.5t276 -112.5h146
q20 0 20 -47q0 -65 -14 -65h-156q-205 0 -350 145.5t-145 349.5q0 134 66 248t180 181t249 67q104 0 192.5 -31t157 -91.5t107.5 -159t39 -224.5zM680 682v121q0 48 -30.5 84.5t-88.5 36.5q-59 0 -89 -40t-30 -81v-121q0 -59 38.5 -88t80.5 -29q40 0 79.5 29t39.5 88z" />
    <glyph glyph-name="A" unicode="A" horiz-adv-x="681" 
d="M651 20q1 -7 -5 -11.5t-23.5 -6.5t-28.5 -2h-38h-17h-19h-34t-24 2.5t-19 8t-7 14.5q-7 54 -20 149.5t-21 155.5q0 4 -2 7t-5 5t-6.5 3t-9.5 1h-10h-12.5h-13.5h-12h-11.5h-9.5h-8t-7 -1t-6 -2t-4 -3t-3 -4.5t-1 -5.5q-20 -194 -30 -310q-1 -14 -21.5 -17t-70.5 -3h-21
q-102 0 -100 18q164 1153 196 1387q4 31 107 31q49 0 78 -7t34 -30q28 -187 66 -447t70.5 -477.5t68.5 -454.5zM379 514q-4 56 -12.5 182t-14.5 217q0 14 -4.5 35t-13.5 21q-7 0 -10.5 -26t-1.5 -34q-5 -72 -29 -393q0 -10 8.5 -13t32.5 -3h11h10.5h8t7 1t5 2.5t3 4t0.5 6.5
z" />
    <glyph glyph-name="B" unicode="B" horiz-adv-x="745" 
d="M678 311q0 -130 -84 -219q-87 -92 -240 -92h-198q-7 0 -17 0.5t-16 0.5t-12.5 1t-10.5 3t-6 5q-8 11 -10 21t-2 41v1298q0 43 12 53q11 11 49 11h203q155 0 244 -86q80 -80 80 -224v-174q0 -86 -39 -139q-16 -20 -40 -35t-39 -21.5t-15 -9.5q0 -1 18 -6.5t45 -21.5
t45 -41q33 -49 33 -127v-238zM451 942v139q0 80 -29 113q-22 25 -66 25q-40 0 -47 -9q-8 -11 -8 -28v-305q0 -31 10 -39q9 -7 37 -7q45 0 74 31t29 80zM459 334v172q0 129 -84 129q-51 0 -62.5 -6t-11.5 -33v-336q0 -41 14 -43q10 -2 41 -2q47 0 74 29q19 19 24 38.5t5 51.5
z" />
    <glyph glyph-name="C" unicode="C" horiz-adv-x="694" 
d="M653 287q0 -131 -74.5 -209t-213.5 -78q-134 0 -215.5 83t-81.5 204v858q0 122 81.5 205.5t215.5 83.5q137 0 212.5 -84t75.5 -205v-111q0 -15 -20.5 -20.5t-89.5 -5.5q-78 0 -88 3q-15 5 -15 19v107q0 28 -19.5 57t-55.5 29q-43 0 -60.5 -34.5t-17.5 -82.5v-772
q0 -117 78 -117q40 0 57.5 25.5t17.5 56.5v107q0 19 14.5 22.5t71.5 3.5h23q68 0 86 -6t18 -33v-106z" />
    <glyph glyph-name="D" unicode="D" horiz-adv-x="745" 
d="M678 311q0 -132 -88 -223q-85 -88 -236 -88h-213h-8.5h-8h-7t-6.5 0.5t-5.5 1t-5 1.5t-4 2.5t-4 3.5t-2.5 5q-8 10 -8 49v1307q0 41 8 51q8 9 18 11t35 2h209q152 0 242 -84q84 -78 84 -226v-813zM457 352v729q0 80 -27 113q-25 25 -68 25q-48 0 -55 -9q-6 -8 -6 -28
v-922q0 -33 8 -41q4 -4 47 -4q49 0 78 37q12 16 17 36.5t5.5 29.5t0.5 34z" />
    <glyph glyph-name="E" unicode="E" horiz-adv-x="634" 
d="M594 102q0 -70 -4 -86t-21 -16h-393q-7 0 -19.5 -0.5t-20 -0.5t-16.5 1t-15.5 3t-10.5 5q-5 4 -7.5 9.5t-3.5 14.5t-1.5 14.5t0 16.5t0.5 15v1294q0 19 2 25.5t12 19.5q13 17 47 17h424q18 0 21.5 -16.5t3.5 -80.5q0 -72 -3.5 -88t-23.5 -16h-205q-40 0 -47 -10
q-8 -11 -9 -15t-1 -24v-271q0 -3 -0.5 -11t0 -12.5t1.5 -10.5t3.5 -11t7.5 -8q11 -8 45 -8h99q18 0 22 -16.5t4 -85.5q0 -81 -7 -91q-6 -8 -19 -8h-92q-40 0 -52 -6q-5 -3 -8.5 -7.5t-4.5 -11.5l-1.5 -10.5t0 -14.5t0.5 -15v-305q0 -66 10 -72q13 -8 62 -8h194
q19 0 23 -15.5t4 -83.5z" />
    <glyph glyph-name="F" unicode="F" horiz-adv-x="602" 
d="M592 1337q0 -71 -5 -87.5t-28 -16.5h-199q-34 0 -45 -8q-3 -3 -5 -6t-3.5 -7t-2 -6.5t-1 -9t-0.5 -8.5v-10v-11v-282q0 -44 12 -54q10 -8 45 -8q35 -2 115 -2q21 0 26 -16t5 -84q0 -69 -4 -83.5t-27 -14.5q-3 0 -25.5 0.5t-44.5 0.5t-38 -1q-43 0 -52 -7q-5 -3 -8.5 -8
t-4.5 -13t-1.5 -12.5t0 -16.5t0.5 -15v-516q0 -25 -18.5 -29t-102.5 -4q-78 0 -88 6q-10 5 -10 25v1337q0 22 1.5 29.5t10.5 17.5q13 17 43 17h430q18 0 21.5 -16t3.5 -81z" />
    <glyph glyph-name="G" unicode="G" horiz-adv-x="731" 
d="M664 41q0 -33 -17 -39q-5 -3 -12.5 -3t-16.5 1.5t-14 1.5q-11 0 -29.5 39.5t-27.5 44.5q-7 2 -19 -11t-27.5 -30t-51.5 -31t-84 -14q-136 0 -216.5 85t-80.5 202v858q0 73 32.5 137.5t102 108t162.5 43.5q140 0 219.5 -87t79.5 -202v-111q0 -10 -9 -15t-36 -8t-78 -3h-22
h-36.5t-22 2t-15 6t-3.5 12q0 16 -1 58t-1 51q0 28 -19 57t-56 29q-41 0 -59.5 -35t-18.5 -82v-772q0 -24 2.5 -41.5t9.5 -36.5t23.5 -29t42.5 -10q23 0 39 8.5t23.5 22.5t10 26t2.5 25v268q0 23 -18 29q-9 3 -29.5 6t-25.5 6q-9 9 -9 62q0 56 9 61q34 23 198 19
q59 -1 79 -10.5t20 -32.5v-666z" />
    <glyph glyph-name="H" unicode="H" horiz-adv-x="759" 
d="M678 43q0 -8 -0.5 -11.5t-1 -9t-3 -7.5t-5 -5t-9.5 -4t-13.5 -2t-19 -1.5t-25 -0.5h-32.5q-81 0 -96.5 6t-15.5 35v543q0 45 -19 47q-21 4 -68 3t-55 -3q-11 -4 -13.5 -15t-2.5 -36v-547q0 -24 -16 -28.5t-97 -4.5q-76 0 -90 4t-14 25v1364q0 24 16.5 30.5t87.5 6.5
q79 0 97 -6.5t18 -32.5v-480q0 -22 1 -31.5t7 -19.5t19 -14q79 -9 112 0q17 6 17 59v494q0 23 12.5 27t70.5 4h27q80 0 95.5 -4.5t15.5 -28.5v-1356z" />
    <glyph glyph-name="I" unicode="I" horiz-adv-x="382" 
d="M301 35q0 -24 -15.5 -28.5t-99.5 -4.5q-76 0 -90 4t-14 25v1368q0 23 16 28t88 5q82 0 98.5 -5t16.5 -30v-1362z" />
    <glyph glyph-name="J" unicode="J" horiz-adv-x="673" 
d="M592 287q0 -132 -71.5 -209.5t-209.5 -77.5q-133 0 -206.5 82.5t-73.5 202.5v108q0 29 14.5 34t85.5 5q70 0 88.5 -6t18.5 -33q0 -63 2 -90q4 -40 18 -63t53 -23q25 0 41 9.5t23.5 28t9.5 35.5t2 42q-1 131 -1 311.5t0.5 408.5t0.5 337q0 29 16 36t80 7q78 0 93.5 -5.5
t15.5 -35.5v-1104z" />
    <glyph glyph-name="K" unicode="K" horiz-adv-x="761" 
d="M731 25q1 -8 -2.5 -12.5t-29 -8.5t-76.5 -4q-88 0 -100 4q-14 6 -19 25q-12 47 -62.5 247t-81.5 330q-5 25 -23 2q-10 -13 -20 -35q-16 -39 -16 -86v-450q0 -22 -29 -29.5t-82 -7.5q-108 0 -108 33v1370q0 29 106 29q25 0 39 -0.5t34 -3t30 -9.5t10 -18v-496v-5.5v-6
v-6.5v-6.5t0.5 -6t1.5 -5t2 -3.5t2.5 -2h3.5q4 1 15 39q30 104 72 256.5t69 245.5q4 15 17 17.5t68 2.5h30q114 0 115 -17q0 -1 -1 -3q-117 -365 -168 -514q-14 -40 -14 -68q0 -18 14 -73q61 -211 203 -725z" />
    <glyph glyph-name="L" unicode="L" horiz-adv-x="610" 
d="M580 104q0 -73 -4 -88.5t-23 -15.5h-393q-58 0 -68 12t-10 72v1317q0 22 17 27.5t85 5.5q79 0 98 -5.5t19 -29.5v-1118q0 -63 12 -72q13 -8 56 -8h182q20 0 24.5 -15.5t4.5 -81.5z" />
    <glyph glyph-name="M" unicode="M" horiz-adv-x="894" 
d="M813 37q0 -13 -1 -17t-5 -10t-16.5 -7t-31 -2t-54.5 -1q-74 0 -90.5 5.5t-16.5 29.5q0 657 -6 819q-6 13 -17 10t-14 -18q-34 -157 -69 -279q-3 -16 -12.5 -23t-33.5 -7q-23 0 -31.5 6.5t-13.5 21.5q-29 114 -65 277q-3 15 -17 18.5t-20 -8.5q-6 -164 -6 -815
q0 -25 -17.5 -31t-95.5 -6q-52 0 -71 3t-23 8.5t-4 23.5v1364q0 25 14.5 29t79.5 4q66 0 87 -13t36 -63q17 -57 47.5 -154.5t42.5 -138.5q37 -135 57 -135t56 135q17 53 46.5 146.5t45.5 146.5q14 50 34 64t79 14q69 0 87.5 -5.5t18.5 -29.5v-1362z" />
    <glyph glyph-name="N" unicode="N" horiz-adv-x="792" 
d="M711 59q0 -24 -1 -32.5t-12 -16.5t-29.5 -9t-60.5 -1q-44 0 -62 9.5t-28 45.5q-36 126 -83.5 306t-80.5 298q-1 5 -7.5 29t-9.5 34.5t-8 27t-9.5 23.5t-8.5 7q-14 0 -14 -69v-674q0 -25 -17.5 -31t-95.5 -6q-53 0 -73 3t-24.5 8.5t-4.5 23.5v1370q0 21 13 25t81 4
q65 0 84.5 -11.5t30.5 -54.5q77 -286 166 -604q1 -4 3.5 -13t4 -14.5t4.5 -12t6 -10t6 -3.5q15 0 15 61v625q0 25 16.5 31t91.5 6q77 0 92 -5t15 -30v-1340z" />
    <glyph glyph-name="O" unicode="O" horiz-adv-x="731" 
d="M664 295q0 -134 -77 -214.5t-222 -80.5q-138 0 -217.5 83t-79.5 212v846q0 132 84 212.5t213 80.5q133 0 216 -80t83 -213v-846zM442 340v760q0 50 -18.5 86.5t-58.5 36.5q-42 0 -60 -36t-18 -87v-760q0 -22 0.5 -35.5t5 -32t12 -29t23 -18.5t37.5 -8q26 0 42.5 10.5
t23.5 30.5t9 38t2 44z" />
    <glyph glyph-name="P" unicode="P" horiz-adv-x="729" 
d="M678 856q0 -143 -103 -238q-84 -75 -229 -75q-23 0 -34 -14t-11 -50v-446q0 -24 -17.5 -28.5t-83.5 -4.5h-14q-72 0 -88 6t-16 39v1325q0 38 10 51q9 13 51 13h209q140 0 226 -72q100 -81 100 -238v-268zM457 885v196q0 80 -27 113q-25 25 -68 25q-46 0 -55 -9
q-6 -8 -6 -28v-389v-8v-8t0.5 -7t1 -7t2 -5t3.5 -5t5 -3q10 -2 45 -2q47 0 74 32q12 15 17.5 33t6.5 29.5t1 34.5v8z" />
    <glyph glyph-name="Q" unicode="Q" horiz-adv-x="729" 
d="M662 295q0 -114 -47.5 -179t-116.5 -91q-27 -8 -27 -23q0 -51 26.5 -73.5t84.5 -22.5q20 0 20 -84q0 -64 -7 -73q-3 -5 -9 -5q-10 0 -34 1t-28 1q-53 4 -98 18t-86.5 41t-65.5 75t-24 112q0 22 -29 39q-30 19 -51.5 36.5t-47.5 49t-40 76.5t-14 102v846q0 132 84 212.5
t213 80.5q132 0 214.5 -80.5t82.5 -212.5v-846zM440 340v760q0 51 -17.5 87t-57.5 36q-42 0 -60 -36t-18 -87v-760q0 -123 78 -123q43 0 59 32t16 91z" />
    <glyph glyph-name="R" unicode="R" horiz-adv-x="737" 
d="M676 33q0 -24 -18 -28.5t-95 -4.5t-91.5 4t-14.5 31v471q0 57 -19.5 93t-56.5 36q-58 0 -69 -3t-11 -24v-569q0 -28 -19 -33.5t-100 -5.5q-67 0 -83.5 6.5t-16.5 38.5v1325q0 38 8 51q3 4 6.5 6.5t6 4t8.5 2t8.5 0.5h11h12.5h203q153 0 240 -84q84 -78 84 -226v-174
q0 -87 -35 -135q-16 -24 -41.5 -41t-42 -24t-16.5 -9t17.5 -7.5t43.5 -19.5t43 -36q37 -51 37 -129v-516zM451 942v139q0 80 -29 113q-12 13 -26.5 19t-47.5 6q-32 0 -41 -11q-6 -12 -6 -26v-305q0 -33 10 -41q7 -5 37 -5q45 0 74 31t29 80z" />
    <glyph glyph-name="S" unicode="S" horiz-adv-x="696" 
d="M645 354q0 -125 -33 -184q-55 -99 -106.5 -134.5t-157.5 -35.5q-131 0 -214 76t-83 211v114q0 13 19 17t82 4q71 0 95.5 -2.5t24.5 -13.5v-87q0 -61 16.5 -90.5t59.5 -29.5q65 0 74 75q4 70 4 95q0 48 -40 113.5t-97 134.5t-113.5 144t-96.5 165.5t-40 175.5
q0 43 15.5 103t35.5 95q29 50 88.5 92t151.5 42q128 0 209.5 -82t81.5 -197v-100q0 -9 -17 -11t-69 -2h-13q-66 0 -92.5 2.5t-26.5 12.5v94q0 41 -22.5 66.5t-50.5 25.5q-27 0 -47 -19.5t-23 -45.5q-6 -46 -6 -82q0 -49 21.5 -99.5t56 -95.5t76.5 -92.5t83.5 -99t76 -104.5
t56 -118t21.5 -133z" />
    <glyph glyph-name="T" unicode="T" horiz-adv-x="657" 
d="M627 1337q0 -71 -4 -87.5t-21 -16.5h-88q-49 0 -59 -4q-4 -3 -6.5 -7t-4 -9.5t-2.5 -10.5t-1.5 -12.5t-0.5 -12v-13v-11.5v-1133q0 -13 -22 -16.5t-96 -3.5q-69 0 -87 3t-18 17v1133v14v15t-0.5 13.5t-2 14t-4.5 11t-7 8.5q-10 4 -60 4h-75q-23 0 -30 18t-7 82q0 65 5 83
t23 18h541q18 0 22.5 -18t4.5 -79z" />
    <glyph glyph-name="U" unicode="U" horiz-adv-x="731" 
d="M664 287q0 -130 -79.5 -208.5t-219.5 -78.5q-134 0 -215.5 83.5t-81.5 201.5v1114q0 24 18.5 29.5t95.5 5.5q64 0 84.5 -6.5t20.5 -28.5v-1067q0 -115 78 -115q77 0 77 115v1069q0 22 17 27.5t86 5.5q54 0 78.5 -3t32.5 -9t8 -19v-1116z" />
    <glyph glyph-name="V" unicode="V" horiz-adv-x="679" 
d="M649 1401q-29 -205 -104 -686.5t-101 -683.5q-3 -22 -22 -26.5t-90 -4.5q-76 0 -96 5t-23 30q-74 603 -182 1368q-3 22 14.5 26.5t97.5 4.5q55 0 78 -3.5t29.5 -9.5t9.5 -24q8 -87 31 -409.5t37 -448.5q0 -21 8 -21q10 0 10 21q15 123 43 447.5t39 410.5q3 26 18.5 30.5
t90.5 4.5q77 0 96 -5t16 -26z" />
    <glyph glyph-name="W" unicode="W" horiz-adv-x="843" 
d="M813 1411q-18 -218 -115 -1388q-1 -9 -6.5 -14t-15.5 -6.5t-23.5 -2.5t-30.5 0h-18q-83 0 -88 23q-16 75 -39 198t-31 162q0 1 -1 6.5t-2 8t-4 5.5t-7 3q-3 0 -5.5 -2.5t-3.5 -5.5t-2 -7.5t-1 -5.5q-13 -64 -35 -180t-35 -180q-2 -9 -10.5 -14.5t-25.5 -7.5t-28 -2.5
t-32 -0.5h-8h-13.5h-18.5t-18 0.5t-19 2t-15.5 4t-12.5 6.5t-4 10q-43 540 -114 1386q-1 8 15 13.5t37.5 8.5t43.5 3q113 0 115 -23q10 -194 29 -495.5t28 -469.5q0 -20 12 -20q15 0 15 23q19 208 43 512q3 24 57 24q64 0 66 -24q6 -68 13 -166.5t14 -181.5t16 -173
q0 -20 12 -20q14 0 14 22q9 202 27.5 529.5t23.5 441.5q2 21 95 21h19h34.5t26.5 -2t21 -7t5 -14z" />
    <glyph glyph-name="X" unicode="X" horiz-adv-x="686" 
d="M655 29q4 -18 -17.5 -23.5t-94.5 -5.5t-91 4t-22 23q-11 45 -23.5 106.5t-27.5 144t-23 123.5q-7 33 -14 33q-14 0 -14 -33q-38 -214 -76 -370q-4 -22 -22.5 -26.5t-92.5 -4.5q-75 0 -93.5 5t-14.5 30q16 59 75.5 286.5t96.5 360.5q10 42 10 53q0 18 -14 58
q-32 127 -162 612q-6 19 16 24t94 5q79 0 96.5 -4t20.5 -25q49 -290 62 -358q8 -29 16 -29q10 0 16 26q63 359 64 363q3 20 17.5 23.5t92.5 3.5t96.5 -4.5t14.5 -22.5q-71 -261 -156 -608q-16 -58 -16 -60q0 -15 10 -53q20 -106 47.5 -211t70 -246.5t58.5 -199.5z" />
    <glyph glyph-name="Y" unicode="Y" horiz-adv-x="651" 
d="M621 1403q-83 -396 -148 -670q-4 -19 -8 -41t-8 -46t-6 -34q-13 -58 -13 -108v-488q0 -16 -112 -16q-109 0 -109 23q0 81 1 231.5t1 243.5q0 66 -6 100q-2 15 -13.5 60.5t-15.5 62.5q-111 484 -153 682q-2 10 6.5 16t25 8.5t30 3.5t30.5 1q59 0 90.5 -6t34.5 -27
q14 -99 37 -267.5t32 -236.5q0 -5 4 -11.5t9 -6.5q10 0 10 20q15 103 36 270t30 232q5 33 114 33q25 0 40.5 -1t32 -3.5t23.5 -8.5t5 -16z" />
    <glyph glyph-name="Z" unicode="Z" horiz-adv-x="614" 
d="M569 1376q0 -148 -6 -166q-56 -179 -143.5 -458.5t-149.5 -475.5q-7 -23 0 -57q5 -11 10.5 -13.5t22.5 -2.5h238q15 0 18.5 -26t3.5 -77v-6q0 -28 -0.5 -38t-2 -27t-6.5 -23t-13 -6h-463q-27 0 -27 50v3q0 24 -0.5 64.5t-0.5 62t1 47t3 41t5 23.5q160 484 283 878
q6 18 2.5 39t-16.5 31q-10 4 -43 4h-197q-25 0 -25 90q0 25 0.5 37.5t2.5 30t7.5 25.5t14.5 8h442q27 0 33 -9t6 -49z" />
    <glyph glyph-name="bracketleft" unicode="[" horiz-adv-x="432" 
d="M412 1522q0 -92 -17 -92q-65 0 -80 -7q-24 -10 -24 -45v-1312q0 -19 4 -31t8.5 -18.5t17.5 -9.5t19.5 -3.5t26.5 0t28 0.5q5 0 8 -6t4 -17t1.5 -19.5t0 -22.5t-0.5 -17q0 -102 -13 -102q-29 0 -84 -2t-89.5 -2.5t-73 2.5t-57.5 13.5t-19 29.5v1708q0 13 10.5 22t31 14
t43 7.5t56 3t59.5 0t63.5 -1t59.5 -0.5q8 0 12.5 -7t5.5 -19t1 -22.5t-1 -24.5t-1 -19z" />
    <glyph glyph-name="backslash" unicode="\" horiz-adv-x="524" 
d="M481 27q1 -9 -5.5 -14.5t-20.5 -8t-26.5 -3.5t-31.5 -1q-113 0 -118 31q-156 880 -238 1362q-4 21 25.5 30t70.5 9q105 0 109 -21q43 -250 117 -690t118 -694z" />
    <glyph glyph-name="bracketright" unicode="]" horiz-adv-x="432" 
d="M358 -141q0 -11 -10.5 -19.5t-30.5 -12.5t-43 -6.5t-56 -2.5t-59.5 0.5t-63.5 1t-60 0.5q-4 0 -6.5 7t-3 20.5t-1 24t0 29t0.5 23.5t-0.5 17t-1 21.5t0 19.5t3.5 16t8 6h22.5h20.5t16.5 0.5t14.5 2t10.5 4t9 7t5.5 10.5t4 15t1 20v1315q0 15 -5 25.5t-10.5 15.5t-20.5 8
t-23.5 3h-30.5h-14q-15 0 -15 92q0 5 -1 18.5t-1.5 25t0.5 23t5 18.5t12 7q21 0 59 0.5t64 1t59.5 0t56 -3.5t43 -8t31 -14.5t10.5 -22.5v-1708z" />
    <glyph glyph-name="asciicircum" unicode="^" horiz-adv-x="698" 
d="M614 1014q0 -5 -1 -8.5t-2.5 -6t-6.5 -6t-9 -5.5t-13 -7t-17 -10q-6 -3 -19 -11.5t-18.5 -11t-14.5 0t-15 14.5q-12 21 -27.5 46.5t-25.5 43t-22 38t-20.5 34t-17 28t-14.5 23t-11 16t-8 11t-4 3.5q-2 0 -10.5 -12t-24 -37t-30.5 -50l-39 -65t-41 -69q-8 -13 -29.5 -8
t-48.5 26q-23 19 -28.5 30.5t3.5 25.5q26 48 183 317q4 6 11.5 20t12 21t11.5 16t14.5 13t15.5 4q5 0 10 -2t10 -7t9 -8.5t9.5 -12t7.5 -12.5t8 -14.5t8 -13.5q11 -19 66.5 -111.5t96 -163t41.5 -79.5z" />
    <glyph glyph-name="underscore" unicode="_" horiz-adv-x="575" 
d="M580 -137q-12 -5 -71 -5.5t-121.5 1t-70.5 0.5q-58 -5 -184 2q-11 0 -39 -0.5t-52 -0.5t-40 1q-9 2 -8 34t10 37q14 4 35.5 4.5t49 -1t34.5 -1.5q36 1 89 -0.5t75 -1.5q19 0 142 -1t142 -1q8 0 12 -32t-3 -35z" />
    <glyph glyph-name="grave" unicode="`" horiz-adv-x="698" 
d="M528 1206q-21 -41 -30 -88q-4 -16 -12.5 -20t-36.5 6q-56 27 -99 46.5t-90 39.5t-84 37q-42 32 -24 57q12 15 34 80q4 11 13 14t22 -0.5t35 -13.5q95 -44 203 -88q39 -17 57.5 -36t11.5 -34z" />
    <glyph glyph-name="a" unicode="a" horiz-adv-x="706" 
d="M645 20q0 -17 -17 -19q-5 -1 -75 -1q-76 0 -93.5 4.5t-17.5 26.5q0 36 -2 38q-3 4 -10 -1q-1 -1 -9 -11t-13 -15t-16 -14.5t-21.5 -14.5t-26.5 -9t-33 -4q-119 0 -189.5 73.5t-70.5 217.5v399q0 79 23 138t61 92t82 49t92 16q69 0 115 -59q13 -17 15 5q1 8 1 27t20.5 24
t90.5 5h9q56 0 70.5 -3t14.5 -19v-945zM430 354v283q0 135 -82 135t-82 -135v-283q0 -66 17.5 -101.5t64.5 -35.5t64.5 35.5t17.5 101.5z" />
    <glyph glyph-name="b" unicode="b" horiz-adv-x="708" 
d="M657 291q0 -144 -69.5 -217.5t-186.5 -73.5q-35 0 -69 20t-53 39q-11 8 -14 1t-3 -29q0 -7 -1 -11.5t-4 -8t-6 -6t-9 -3.5t-11 -2t-15 -1t-18 0.5t-21.5 0.5h-24.5h-25q-38 -1 -52 1.5t-14 14.5v1401q0 13 20.5 16t76.5 3q59 0 83.5 -3.5t24.5 -15.5v-448q0 -38 14 -35
q4 1 9 6q20 19 55.5 32t56.5 13q112 0 184 -76t72 -219v-399zM440 354v283q0 135 -82 135t-82 -135v-283q0 -137 82 -137q48 0 65 35t17 102z" />
    <glyph glyph-name="c" unicode="c" horiz-adv-x="675" 
d="M645 295q0 -136 -78.5 -216.5t-218.5 -80.5q-136 0 -216.5 83.5t-80.5 213.5v395q0 134 82.5 214.5t214.5 80.5q134 0 215.5 -75.5t81.5 -221.5q0 -17 -17 -20.5t-102 -3.5q-66 0 -81 3t-15 17q0 48 -21 75t-61 27q-47 0 -65.5 -35t-18.5 -100v-317q0 -30 2.5 -50t10 -42
t25.5 -33.5t46 -11.5q82 0 82 104q0 10 4.5 14t28 7.5t72.5 3.5q74 0 92 -5t18 -26z" />
    <glyph glyph-name="d" unicode="d" horiz-adv-x="706" 
d="M645 16q0 -12 -12.5 -14t-53.5 -2h-28q-12 0 -25.5 -0.5t-22 -0.5h-17.5h-14t-10.5 1.5t-8.5 3t-5 5t-3 8t-1 10.5q0 35 -8 36q-3 0 -8 -4q-20 -20 -53.5 -39.5t-69.5 -19.5q-117 0 -185.5 74t-68.5 217v399q0 144 72 219.5t182 75.5q21 0 57 -13t56 -32q20 -10 22 29
v448q0 12 19.5 14.5t74.5 2.5h11h11q56 0 72.5 -2.5t16.5 -14.5v-1401zM430 354v283q0 135 -82 135t-82 -135v-283q0 -66 17.5 -101.5t64.5 -35.5t64.5 36t17.5 101z" />
    <glyph glyph-name="e" unicode="e" horiz-adv-x="696" 
d="M645 295q0 -144 -80.5 -219.5t-216.5 -75.5q-131 0 -214 80t-83 215v397q0 132 84 212.5t213 80.5q132 0 214.5 -80.5t82.5 -212.5v-213q0 -13 -1 -17.5t-10 -8.5t-30 -4h-311q-14 0 -21.5 -6.5t-7.5 -26.5t1 -56.5t1 -54.5q2 -46 21.5 -67t60.5 -21q42 0 62 25.5
t20 68.5q0 4 4 6.5t15.5 4t31 2t51.5 0.5q74 0 93.5 -4t19.5 -25zM426 625v55q0 39 -19.5 65.5t-60.5 26.5t-60.5 -27t-19.5 -65v-51q0 -31 78 -31q82 0 82 27z" />
    <glyph glyph-name="f" unicode="f" horiz-adv-x="477" 
d="M457 856q0 -48 -3.5 -67t-6.5 -20t-17 -1q-80 0 -97.5 -5t-17.5 -30v-696q0 -27 -14.5 -32t-89.5 -5q-76 0 -92.5 4.5t-16.5 28.5v700q0 25 -9 31t-48 6h-1q-17 0 -20.5 12t-3.5 76q0 67 3.5 86t17.5 19q21 0 30.5 0.5t17.5 4.5t11 13q2 18 2 113q0 90 24 152.5t83 115.5
q33 29 93.5 50.5t131.5 21.5q12 0 14.5 -14t2.5 -64v-29q0 -47 -2 -69t-6 -28.5t-13 -6.5q-25 0 -52 -14t-42 -35q-21 -33 -21 -121q0 -54 4 -72q1 -7 8.5 -10.5t25 -5.5t28.5 -2h37h14q17 0 21 -19t4 -88z" />
    <glyph glyph-name="g" unicode="g" horiz-adv-x="706" 
d="M645 -115q0 -137 -78 -216t-219 -79q-134 0 -215.5 82t-81.5 213q0 13 10 15.5t53 1.5h46q12 0 23.5 0.5t19.5 1t15.5 1t12.5 0.5t10 -0.5t7.5 -1t4.5 -2.5t2.5 -5t0.5 -7q0 -50 26 -79t66 -29q41 0 64 31.5t26 89.5q2 33 2 100q0 55 -9 55q-3 0 -9 -6q-38 -51 -111 -51
q-51 0 -96 16.5t-82.5 50.5t-59.5 92t-22 134v399q0 142 73 217.5t191 75.5q20 0 37.5 -4.5t31.5 -15.5t21 -17t18.5 -21t12.5 -16q12 -10 14 13l1 30q0 21 9.5 24.5t53.5 2.5h43q73 0 80 -3q8 -4 8 -13v-1080zM430 354v283q0 135 -82 135q-84 0 -84 -135v-283
q0 -65 18.5 -101t65.5 -36t64.5 35.5t17.5 101.5z" />
    <glyph glyph-name="h" unicode="h" horiz-adv-x="718" 
d="M657 20q0 -14 -20 -17t-84 -3q-74 0 -95.5 2.5t-21.5 13.5v635q0 50 -18.5 86.5t-59.5 36.5q-42 0 -59.5 -36t-17.5 -87v-628q0 -17 -16.5 -20t-81.5 -3h-21q-65 0 -83 3t-18 17v1397q0 14 19.5 16.5t77.5 2.5h9q29 0 42 -0.5t29 -2t22 -5.5t6 -11v-448q0 -38 14 -35
q4 1 9 6q20 19 55 32t57 13q111 0 183.5 -75.5t72.5 -219.5v-670z" />
    <glyph glyph-name="i" unicode="i" horiz-adv-x="362" 
d="M297 1260q2 -38 1.5 -66.5t-29 -48t-91.5 -27.5q-55 -6 -93 41.5t-32 106.5q3 28 8.5 48t18.5 39t37.5 28t60.5 8q50 -3 83 -39.5t36 -89.5zM291 37q0 -27 -15.5 -32t-99.5 -5q-77 0 -90.5 4t-13.5 29v917q0 25 16 30t88 5q82 0 98.5 -5t16.5 -32v-911z" />
    <glyph glyph-name="j" unicode="j" horiz-adv-x="362" 
d="M299 1260q3 -28 1.5 -51.5t-10.5 -42t-36.5 -31t-75.5 -17.5q-54 -6 -92.5 41.5t-32.5 106.5q4 29 9.5 48.5t18 38.5t37 28t60.5 8q52 -3 85 -39.5t36 -89.5zM289 -117q0 -293 -324 -293q-14 0 -19 18.5t-5 80.5q0 64 4.5 84t17.5 20q69 0 90 27.5t21 103.5v1024
q0 16 5 23t27.5 10.5t73.5 3.5q53 0 76 -3.5t28 -10t5 -21.5v-1067z" />
    <glyph glyph-name="k" unicode="k" horiz-adv-x="698" 
d="M678 25q2 -7 -4.5 -12t-35 -9t-79.5 -4q-54 0 -75.5 5t-28.5 24q-26 75 -56.5 157.5t-54.5 151.5q-17 54 -39 35q-24 -20 -24 -47v-289q0 -23 -28 -29t-87 -6q-50 0 -77.5 5.5t-27.5 25.5v1370q0 29 105 29q115 0 115 -31v-715q0 -35 10 -34l4 3q1 2 22 43q49 132 97 265
q3 7 11 11.5t23.5 6t27 2t34.5 0.5q27 0 44 -0.5t42.5 -2t37.5 -6t9 -11.5q-92 -207 -149 -332q-19 -43 -19 -53q0 -29 12 -56q56 -140 191 -497z" />
    <glyph glyph-name="l" unicode="l" horiz-adv-x="352" 
d="M285 33q0 -23 -16 -28t-99 -5q-74 0 -88 4t-14 25v1370q0 23 16 28t86 5q78 0 96.5 -5.5t18.5 -29.5v-1364z" />
    <glyph glyph-name="m" unicode="m" horiz-adv-x="1028" 
d="M967 20q0 -13 -19 -16.5t-84 -3.5q-76 0 -97.5 3t-21.5 15v625v12q0 25 -0.5 37t-3.5 30.5t-9.5 27t-19.5 15.5t-32 7q-16 0 -27 -6.5t-16.5 -14.5t-8 -25.5t-3 -29t-0.5 -35.5v-12v-629q0 -14 -20 -17t-85 -3q-72 0 -94.5 3t-22.5 15v633q0 23 -0.5 35t-3.5 31.5t-9 29
t-18 17.5t-30 8q-21 0 -34 -9t-18.5 -29t-7 -37t-1.5 -48v-626q0 -8 -2.5 -12t-15.5 -7t-34.5 -3.5t-64.5 -0.5q-70 0 -86.5 3t-16.5 17v947q0 12 12 14t57 2h20q87 0 96 -3q16 -5 16 -30q0 -49 7 -44q2 1 3 3q10 25 48 49.5t73 24.5q45 0 76.5 -13.5t43.5 -29.5t19.5 -29.5
t10.5 -13.5q5 0 15 13.5t24 29.5t48.5 29.5t82.5 13.5q123 0 188.5 -74t65.5 -223v-666z" />
    <glyph glyph-name="n" unicode="n" horiz-adv-x="718" 
d="M657 20q0 -13 -18.5 -16.5t-83.5 -3.5q-75 0 -97 3t-22 13v627q0 28 -1.5 47t-7.5 40t-19 31.5t-33 10.5q-48 0 -71 -34t-23 -89v-626q0 -17 -16.5 -20t-100.5 -3q-69 0 -86 3.5t-17 16.5v947q0 12 14 14t79 2h34q50 1 62 -3.5t12 -27.5q0 -57 5 -57q3 0 9 10
q18 31 63.5 54.5t78.5 23.5q109 0 174 -71.5t65 -225.5v-666z" />
    <glyph glyph-name="o" unicode="o" horiz-adv-x="698" 
d="M647 295q0 -144 -81.5 -219.5t-217.5 -75.5q-130 0 -213.5 80t-83.5 215v397q0 132 84 212.5t213 80.5q133 0 216 -80t83 -213v-397zM430 354v283q0 135 -82 135t-82 -135v-283q0 -65 18 -101t64 -36q48 0 65 35.5t17 101.5z" />
    <glyph glyph-name="p" unicode="p" horiz-adv-x="708" 
d="M657 293q0 -135 -74.5 -214t-187.5 -79q-18 0 -52 12.5t-54 30.5q-21 12 -23 -29v-407q0 -12 -8 -14q-9 -3 -94 -3q-68 0 -85.5 3t-17.5 16v1356q0 14 14 16t79 2q15 0 31 0.5t24 0.5h17.5t14 -1t9 -2.5t6.5 -5.5t3.5 -8.5t2.5 -12.5q1 -5 1.5 -10.5t0.5 -10t0.5 -9
t1 -6.5t2 -4.5t3.5 -2t5 1.5q1 1 13 16.5t22.5 25.5t33.5 20t50 10q113 0 187.5 -78t74.5 -217v-397zM440 354v283q0 135 -82 135t-82 -135v-283q0 -65 18 -101t64 -36q48 0 65 35.5t17 101.5z" />
    <glyph glyph-name="q" unicode="q" horiz-adv-x="708" 
d="M647 -391q0 -13 -17.5 -16t-84.5 -3q-75 0 -89 2.5t-14 14.5v407q0 48 -22 29q-21 -19 -55 -31t-54 -12q-107 0 -183.5 76t-76.5 217v397q0 139 74 217t186 78q27 0 50 -10t33.5 -21t22 -26t13.5 -17q10 -4 12 4t2 28v7q0 26 18 30q10 3 95 3q73 0 79 -2q10 -5 11 -16
v-1356zM432 354v283q0 135 -84 135q-82 0 -82 -135v-283q0 -66 17.5 -101.5t64.5 -35.5q84 0 84 137z" />
    <glyph glyph-name="r" unicode="r" horiz-adv-x="481" 
d="M461 905q0 -110 -8 -121q-12 -16 -54 -16q-52 0 -85 -40t-33 -101v-604q0 -17 -18 -20t-99 -3q-67 0 -85 3.5t-18 16.5v947q0 15 59 14h11h10.5h12.5h40q45 1 56.5 -3t11.5 -26q0 -10 0.5 -17.5t1.5 -13t2.5 -8.5t3.5 -2q1 0 13.5 13t27.5 25.5t47 23t70 10.5
q14 0 18 -0.5t9 -8t5.5 -22.5t0.5 -47z" />
    <glyph glyph-name="s" unicode="s" horiz-adv-x="651" 
d="M610 260q0 -105 -84 -182.5t-200 -77.5q-120 0 -202.5 79t-82.5 208q0 10 15.5 12t78.5 2h28q48 0 63.5 -1.5t15.5 -8.5q0 -103 80 -103q79 0 79 88q0 37 -19.5 64.5t-50.5 45.5t-69 35t-76 40t-69 54t-50.5 83t-19.5 121q0 103 76 183.5t199 80.5q119 0 196.5 -85.5
t77.5 -203.5q0 -7 -13 -8.5t-57 -1.5h-28q-109 0 -109 14q0 50 -20 77.5t-52 27.5q-34 0 -52.5 -22.5t-18.5 -65.5q0 -28 20 -51t52 -41.5t71 -38.5t78 -48t71 -63t52 -90t20 -123z" />
    <glyph glyph-name="t" unicode="t" horiz-adv-x="495" 
d="M459 96q0 -83 -5 -91q-4 -5 -14 -5q-182 0 -258 75t-76 218v463q0 28 -61 28q-17 0 -21 13t-4 67q0 42 3.5 62.5t8.5 26t15 5.5q41 0 50 7t9 36v113q0 21 16.5 25t92.5 4t93.5 -4.5t17.5 -28.5v-109q0 -26 15.5 -32t82.5 -6q18 0 24.5 -18.5t6.5 -78.5q0 -59 -3.5 -71.5
t-21.5 -12.5q-86 0 -96 -10q-8 -8 -8 -39v-411q0 -69 28 -94t84 -25q8 0 12 -7.5t6.5 -31t2.5 -68.5z" />
    <glyph glyph-name="u" unicode="u" horiz-adv-x="708" 
d="M647 16q0 -17 -59 -16h-10h-10h-11q-86 0 -98 8q-15 15 -15 49q0 38 -4 37q-4 -2 -8 -10q-21 -36 -57.5 -61t-79.5 -25q-110 0 -177 72t-67 227v666q0 13 20 16.5t81 3.5q72 0 93 -4t21 -16v-611q0 -32 1.5 -49.5t7 -42.5t20 -37t37.5 -12q100 0 100 135v610q0 10 2 14
t14 7t31.5 3.5t61.5 0.5q71 0 88.5 -3t17.5 -15v-947z" />
    <glyph glyph-name="v" unicode="v" horiz-adv-x="643" 
d="M623 948q-99 -477 -195 -915q-4 -20 -30.5 -26.5t-82.5 -6.5h-8q-28 0 -42 0.5t-32 4t-26.5 12t-11.5 22.5q-26 141 -84.5 444t-90.5 473q-1 8 6 13.5t23 8t30.5 3t35.5 0.5q121 0 125 -29q14 -121 34.5 -314t30.5 -288q0 -20 12 -20q3 0 5.5 1.5t4.5 4.5t2.5 4.5
t1.5 6.5l1 5q61 494 74 602q3 29 116 29q51 0 78 -7.5t23 -27.5z" />
    <glyph glyph-name="w" unicode="w" horiz-adv-x="837" 
d="M817 954q-136 -892 -143 -934q-3 -20 -33.5 -22.5t-62.5 2.5q-3 0 -19.5 1t-26 2t-22.5 3.5t-20.5 7.5t-8.5 13q-8 73 -24.5 192.5t-22.5 165.5q0 1 -1 6.5t-2 8t-4 5.5t-7 3q-12 0 -12 -21q-37 -240 -54 -369q-3 -16 -36.5 -19t-65.5 1q-3 0 -19 1t-24.5 2t-21.5 3.5
t-19.5 7.5t-7.5 13q-23 151 -71 465t-69 452q-3 16 18.5 25.5t67.5 9.5q58 0 81 -6.5t24 -26.5q17 -142 34.5 -312.5t24.5 -234.5q0 -20 13 -20q4 0 7 2.5t4 5t2 8t1 6.5q8 98 24 268t25 287q2 14 15.5 19.5t52.5 5.5q44 0 62.5 -4.5t19.5 -20.5q9 -116 24 -285t23 -268
q0 -20 12 -20q4 0 7 3t4 5.5t2 8t1 6.5q10 95 29 269.5t29 285.5q2 22 82 22q27 0 45.5 -1t34.5 -4t22.5 -9t5.5 -15z" />
    <glyph glyph-name="x" unicode="x" horiz-adv-x="653" 
d="M633 25q4 -12 -20 -18q-26 -7 -78 -7q-116 0 -123 23q-40 146 -78 268q-6 18 -12 18q-10 0 -15 -20q-55 -195 -78 -262q-3 -10 -12.5 -15.5t-29 -8t-34 -3t-42.5 -0.5q-22 0 -38 1t-29.5 4t-19.5 8.5t-4 13.5q80 209 156 424q6 14 6 47q0 35 -8 55q-26 72 -74 205
t-71 198q-2 7 9.5 12.5t33 9t47.5 3.5q122 0 129 -27q10 -45 32 -134t29 -120q6 -18 13 -18q4 0 5.5 3t3 9.5t1.5 7.5q60 257 61 263q2 11 26.5 13.5t74.5 2.5h16q32 0 55.5 -4t34 -9.5t8.5 -11.5q-28 -82 -78.5 -221t-64.5 -180q-8 -24 -8 -55q0 -33 6 -45
q32 -82 92 -233.5t78 -196.5z" />
    <glyph glyph-name="y" unicode="y" horiz-adv-x="673" 
d="M653 954q-202 -827 -329 -1337q-4 -17 -28 -22t-71 -5q-20 0 -34 1t-30 4t-23 10t-5 18q32 151 80 383q6 27 6 68q0 23 -4 63q-167 703 -195 824q-1 7 7 11.5t25 7t34 3t41 0.5q51 0 78.5 -5.5t30.5 -23.5q17 -107 45 -269.5t43 -254.5q0 -20 12 -20q4 0 7 2.5t4 5t2 8
t1 6.5q68 376 92 526q3 16 30.5 20.5t82.5 4.5q19 0 36 -1.5t32.5 -4.5t23.5 -9t6 -14z" />
    <glyph glyph-name="z" unicode="z" horiz-adv-x="606" 
d="M575 84v-16v-14.5v-12.5t-1 -12t-2 -10t-3.5 -8.5l-5.5 -5.5t-7.5 -4t-10.5 -1h-467q-24 0 -30.5 26t-6.5 87q0 116 4 123q105 186 277 487q9 17 4 41t-19 35q-10 4 -43 4h-174q-15 0 -22.5 12t-9 27t-1.5 41q0 100 27 100h442q30 0 36.5 -17t6.5 -79q0 -107 -10 -125
q-57 -103 -149.5 -268.5t-137.5 -247.5q-6 -11 -1.5 -32t12.5 -26q10 -6 61 -6h201q30 0 30 -98z" />
    <glyph glyph-name="braceleft" unicode="{" horiz-adv-x="491" 
d="M471 1522q0 -92 -12 -92q-56 0 -88.5 -36.5t-32.5 -86.5v-406q0 -50 -11 -88.5t-25 -55t-25 -28t-11 -14.5t11 -15t25 -29t25 -55t11 -88q0 -74 1 -187t1 -208q0 -125 119 -125q10 0 10 -88q0 -6 0.5 -23.5t0 -27.5t-1 -23t-3 -19.5t-6.5 -6.5q-324 0 -324 303v395
q0 44 -33.5 83.5t-70.5 39.5q-11 0 -11 72q0 75 11 75q39 0 71.5 39t32.5 84v402q0 155 85.5 228t238.5 73q5 0 7.5 -6t3.5 -18.5t1.5 -21t0 -25.5t-0.5 -21z" />
    <glyph glyph-name="bar" unicode="|" horiz-adv-x="362" 
d="M291 -113q0 -21 -26 -25.5t-87 -4.5q-77 0 -94 8q-12 6 -12 18v1663q0 31 102 31q58 0 87.5 -6t29.5 -27v-1657z" />
    <glyph glyph-name="braceright" unicode="}" horiz-adv-x="491" 
d="M473 715q0 -74 -10 -74q-37 0 -71 -39.5t-34 -83.5v-395q0 -303 -325 -303q-10 0 -10 98q0 90 10 90q121 0 121 125v395q0 50 11 88t24.5 55t24.5 29t11 15t-7.5 9.5t-17.5 18.5t-20.5 30.5t-18 52t-7.5 75.5v406q0 51 -32 87t-89 36q-13 0 -13 94v14v16.5v16.5t1 16.5
t2.5 13.5t4 10t5.5 3q153 0 239 -73t86 -228v-402q0 -45 33 -84t72 -39q10 0 10 -73z" />
    <glyph glyph-name="asciitilde" unicode="~" horiz-adv-x="907" 
d="M793 772q20 -31 -109 -141q-70 -60 -127 -60q-78 0 -111 33q-14 14 -32 42t-33.5 43.5t-34.5 15.5q-20 0 -36 -13t-43.5 -47t-51.5 -57q-12 -11 -22.5 -10.5t-16 5.5t-16.5 17q-5 5 -11.5 12t-9.5 10.5t-7.5 10t-8.5 16.5q-17 27 102 142q68 65 123 65h12.5h14t13 -0.5
t14.5 -2t14 -3.5t15 -5.5t13.5 -8.5t14.5 -11q16 -15 34.5 -44t34 -46.5t33.5 -17.5q12 0 27.5 11.5t28.5 25.5t36 40t37 40q16 13 25.5 11t25.5 -16q3 -3 10.5 -9.5t11.5 -10t10.5 -10t11 -13t8.5 -14.5z" />
    <glyph glyph-name="nbspace" unicode="&#xa0;" horiz-adv-x="204" 
 />
    <glyph glyph-name="exclamdown" unicode="&#xa1;" horiz-adv-x="362" 
d="M74 600v-971q0 -28 15.5 -33.5t98.5 -5.5q73 0 89 6t16 31v977q0 16 -6 22t-26.5 8.5t-72.5 2.5q-57 0 -79 -3t-28.5 -9.5t-6.5 -24.5zM63 907q-1 -37 -0.5 -64.5t28 -47t89.5 -27.5q54 -6 91.5 40.5t31.5 106.5q-6 57 -30.5 88t-92.5 27q-49 -3 -81.5 -37.5t-35.5 -85.5
z" />
    <glyph glyph-name="cent" unicode="&#xa2;" horiz-adv-x="686" 
d="M647 295q0 -111 -50 -181.5t-126 -97.5q-10 -4 -10 -24v-105q0 -10 -9 -16t-28 -8.5t-35 -3t-43 -0.5q-23 0 -37.5 0.5t-31.5 3t-25 8t-8 14.5v107q0 20 -11 24q-80 31 -131 104t-51 175v395q0 60 15 107.5t43 80t57 53.5t67 38q4 2 6.5 3.5t3.5 5t1 5v6.5v6v121
q0 27 102 27q117 0 117 -25v-127v-5.5t-0.5 -5.5t0 -4.5t1 -4t2.5 -3.5t5 -3q176 -64 176 -277q0 -17 -17.5 -20.5t-101.5 -3.5q-70 0 -86 2t-16 14q0 38 -20.5 63t-57.5 25q-78 0 -78 -125v-303q0 -56 15.5 -89.5t62.5 -33.5q42 0 60 27.5t18 60.5q0 8 6 12t30.5 6.5
t72.5 2.5q76 0 94 -5t18 -26z" />
    <glyph glyph-name="sterling" unicode="&#xa3;" horiz-adv-x="702" 
d="M662 102q0 -65 -8.5 -83.5t-28.5 -18.5h-463q-7 0 -19.5 -0.5t-20 -0.5t-16.5 1t-15.5 3t-10.5 5q-5 4 -7.5 9.5t-3.5 14.5t-1.5 14.5t0 16.5t0.5 15v1067q0 122 82 205.5t215 83.5q138 0 214 -84.5t76 -204.5v-105q0 -11 -6 -17.5t-31.5 -10.5t-74.5 -4q-66 0 -84.5 7.5
t-18.5 28.5v93q0 28 -19 57t-56 29q-39 0 -58.5 -35.5t-19.5 -81.5v-250q0 -3 -0.5 -11t0 -12.5t1.5 -10.5t3.5 -11t7.5 -8q11 -8 45 -8h88q21 0 30 -19.5t9 -81.5q0 -61 -8.5 -79.5t-30.5 -18.5h-80q-39 0 -51 -6q-5 -3 -8.5 -7.5t-4.5 -11.5t-1.5 -11t0 -15t0.5 -15v-249
q0 -66 10 -72q13 -8 61 -8h265q21 0 30 -18t9 -81z" />
    <glyph glyph-name="currency" unicode="&#xa4;" 
d="M791 735q0 61 -4 73.5t-27 12.5h-88q-17 0 -21 5.5t-4 21.5v299q0 27 -15.5 44t-35.5 17h-90q-19 0 -19 17v176q0 22 -15.5 27.5t-65.5 5.5q-45 0 -63.5 -6t-18.5 -25v-180q0 -15 -15 -15h-86q-16 0 -37.5 -19t-21.5 -38v-297q0 -25 -8 -30q-6 -3 -17 -3h-86
q-23 0 -28 -13.5t-5 -72.5q0 -51 5.5 -64.5t25.5 -13.5h86q19 0 23 -4.5t4 -21.5v-350q0 -21 15 -38.5t38 -17.5h94q8 0 10.5 -2.5t2.5 -11.5v-184q0 -21 12 -24t70 -3t69.5 4t11.5 27v176q0 18 15 18h100q19 0 32 16t13 48v342q0 17 4 21.5t23 4.5h90q19 0 23 11t4 55v12z
M481 416q0 -20 -8.5 -27.5t-26.5 -7.5h-81q-18 0 -26.5 7.5t-8.5 27.5v604q0 31 30 31h91q30 0 30 -31v-604z" />
    <glyph glyph-name="yen" unicode="&#xa5;" horiz-adv-x="694" 
d="M664 1403q-53 -210 -146 -561q-7 -23 14 -23q93 0 93 -33q0 -6 1 -23.5t0.5 -30.5t-3.5 -23q-3 -11 -5 -16.5t-13 -11t-30 -5.5h-75q-14 0 -19 -3t-6 -14q-4 -16 -8 -53q-4 -36 -4 -67q0 -9 1 -12.5t7.5 -6t20.5 -2.5q65 0 94.5 -4t35 -9.5t5.5 -19.5q0 -67 4 -82
t-3.5 -23.5t-35.5 -8.5h-115q-16 0 -16 -19v-336q0 -16 -113 -16q-108 0 -108 23v325q0 15 -3.5 20t-15.5 5h-104q-14 0 -32.5 9.5t-14.5 29.5q4 21 0 75q-1 18 12.5 24.5t48.5 6.5h92q15 0 15 21q0 19 -7 59q-2 22 -10 61q-1 12 -5.5 15.5t-16.5 3.5h-82q-14 0 -32.5 9.5
t-14.5 29.5t0 71q-2 19 18 25t84 6q3 0 6 3t4 9.5t-2 16.5q-91 344 -149 555q-3 9 6 15.5t27.5 9t33 3.5t31.5 1q58 0 87.5 -6t33.5 -27q33 -202 90 -504q0 -18 12 -18q4 0 5.5 3.5t3 9.5t1.5 7q54 292 87 502q5 33 108 33q25 0 41.5 -1t34 -3.5t25.5 -8.5t6 -16z" />
    <glyph glyph-name="brokenbar" unicode="&#xa6;" 
d="M791 735q0 61 -4 73.5t-27 12.5h-88q-17 0 -21 5.5t-4 21.5v299q0 27 -15.5 44t-35.5 17h-90q-19 0 -19 17v176q0 22 -15.5 27.5t-65.5 5.5q-45 0 -63.5 -6t-18.5 -25v-180q0 -15 -15 -15h-86q-16 0 -37.5 -19t-21.5 -38v-297q0 -25 -8 -30q-6 -3 -17 -3h-86
q-23 0 -28 -13.5t-5 -72.5q0 -51 5.5 -64.5t25.5 -13.5h86q19 0 23 -4.5t4 -21.5v-350q0 -21 15 -38.5t38 -17.5h94q8 0 10.5 -2.5t2.5 -11.5v-184q0 -21 12 -24t70 -3t69.5 4t11.5 27v176q0 18 15 18h100q19 0 32 16t13 48v342q0 17 4 21.5t23 4.5h90q19 0 23 11t4 55v12z
M481 416q0 -20 -8.5 -27.5t-26.5 -7.5h-81q-18 0 -26.5 7.5t-8.5 27.5v604q0 31 30 31h91q30 0 30 -31v-604z" />
    <glyph glyph-name="section" unicode="&#xa7;" horiz-adv-x="720" 
d="M653 141q0 -74 -26 -131t-68.5 -89t-91.5 -48t-102 -16q-42 0 -82.5 9.5t-79.5 31.5t-69 54t-48 81.5t-18 109.5v99q0 26 110 26q27 0 37.5 -0.5t29.5 -2t26.5 -6.5t7.5 -13v-88q0 -37 21.5 -67t66.5 -30q50 0 70 29.5t20 69.5q0 41 -21 77t-55 63.5t-74.5 54.5
t-81.5 57.5t-75 66t-55 85.5t-21 110q0 58 29 98.5t77 58.5q14 3 -2 19q-2 3 -17.5 18t-29 34t-29.5 49.5t-25 80t-9 111.5q0 128 80.5 209.5t207.5 81.5t206 -80t79 -205v-100q0 -12 -25.5 -15.5t-91.5 -3.5q-73 0 -82 6q-8 5 -8 15v67q0 54 -19.5 85.5t-58.5 31.5
q-43 0 -63.5 -32t-20.5 -79q0 -54 20.5 -99t53.5 -77.5t72.5 -62.5t79.5 -60.5t73 -64t53.5 -81t20.5 -104.5q0 -50 -27.5 -97t-64.5 -68q-6 -1 -8.5 -8t0.5 -11q12 -21 35 -50t36.5 -48.5t25 -59.5t11.5 -92zM461 586q2 83 -127 166q-22 11 -33 8q-18 -4 -28.5 -26
t-10.5 -50q-2 -78 135 -176q20 -8 29 -6q17 4 26 28.5t9 55.5z" />
    <glyph glyph-name="dieresis" unicode="&#xa8;" horiz-adv-x="698" 
d="M618 1225q0 -49 -22 -77t-80 -34q-53 -4 -77.5 28.5t-22.5 82.5q-2 49 25 84.5t77 29.5q62 -5 81 -33.5t19 -80.5zM289 1225q0 -49 -22.5 -77t-78.5 -34q-53 -4 -77.5 28.5t-22.5 82.5q-2 49 25 84.5t77 29.5q61 -6 81 -34.5t18 -79.5z" />
    <glyph glyph-name="copyright" unicode="&#xa9;" horiz-adv-x="1134" 
d="M1067 938q0 -136 -67 -250t-182 -180t-251 -66q-135 0 -249.5 66t-181 180t-66.5 250q0 135 66.5 249.5t181 181.5t249.5 67q136 0 251 -67t182 -181.5t67 -249.5zM961 940q0 161 -114.5 276t-275.5 115t-276 -115t-115 -276t114.5 -274t276.5 -113t276 113t114 274z
M743 838q0 -72 -52.5 -122t-119.5 -50t-119.5 46t-52.5 126v217q0 79 55.5 125.5t116.5 46.5q64 0 118 -47t54 -117q0 -5 -17 -9.5t-30 -4.5q-45 0 -45 6q0 34 -26 54.5t-54 20.5q-27 0 -54.5 -19t-27.5 -56v-215q0 -34 25 -53t57 -19q30 0 55 17.5t25 52.5q0 8 45 8
q4 0 11.5 0.5t13 0.5t11 -0.5t8.5 -2.5t3 -6z" />
    <glyph glyph-name="ordfeminine" unicode="&#xaa;" horiz-adv-x="368" 
d="M285 1051q0 -7 -6.5 -9t-30.5 -2q-29 0 -37 2.5t-8 12.5q0 11 -1 11.5t-5 -1.5q-1 -1 -5 -6.5t-8 -8.5t-12 -6.5t-18 -3.5q-47 0 -77 30.5t-30 88.5v160q0 60 32 88.5t75 28.5q25 0 41 -19q7 -5 8 8q0 11 27 11h16q36 0 38 -5q1 -1 1 -4v-376zM291 948q0 -45 -6 -45h-226
q-12 0 -15 9.5t-3 37.5q0 24 4 32.5t16 8.5h222q8 0 8 -43zM193 1180v120q0 43 -29 43q-27 0 -27 -43v-120q0 -25 5.5 -35t21.5 -10q29 0 29 45z" />
    <glyph glyph-name="guillemotleft" unicode="&#xab;" horiz-adv-x="645" 
d="M602 764q-141 -244 -141 -258q0 -20 139 -256q23 -42 -10 -49q-11 -3 -38.5 -20.5t-33.5 -20.5q-15 -10 -55 51q-49 79 -105.5 179.5t-56.5 115.5q0 28 166 291q41 65 59 53q6 -3 30 -18.5t36 -18.5q33 -7 10 -49zM322 764q-142 -245 -142 -258q0 -20 139 -256
q23 -42 -10 -49q-11 -3 -37.5 -20.5t-33.5 -20.5q-19 -12 -58 51q-46 73 -103 177t-57 120q0 15 57 111.5t111 179.5q42 62 58 51q7 -3 30.5 -18.5t34.5 -18.5q34 -7 11 -49z" />
    <glyph glyph-name="logicalnot" unicode="&#xac;" 
d="M791 735q0 61 -4 73.5t-27 12.5h-88q-17 0 -21 5.5t-4 21.5v299q0 27 -15.5 44t-35.5 17h-90q-19 0 -19 17v176q0 22 -15.5 27.5t-65.5 5.5q-45 0 -63.5 -6t-18.5 -25v-180q0 -15 -15 -15h-86q-16 0 -37.5 -19t-21.5 -38v-297q0 -25 -8 -30q-6 -3 -17 -3h-86
q-23 0 -28 -13.5t-5 -72.5q0 -51 5.5 -64.5t25.5 -13.5h86q19 0 23 -4.5t4 -21.5v-350q0 -21 15 -38.5t38 -17.5h94q8 0 10.5 -2.5t2.5 -11.5v-184q0 -21 12 -24t70 -3t69.5 4t11.5 27v176q0 18 15 18h100q19 0 32 16t13 48v342q0 17 4 21.5t23 4.5h90q19 0 23 11t4 55v12z
M481 416q0 -20 -8.5 -27.5t-26.5 -7.5h-81q-18 0 -26.5 7.5t-8.5 27.5v604q0 31 30 31h91q30 0 30 -31v-604z" />
    <glyph glyph-name="registered" unicode="&#xae;" horiz-adv-x="1134" 
d="M1067 936q0 -205 -146.5 -350.5t-353.5 -145.5q-135 0 -249.5 66.5t-181 180.5t-66.5 249q0 136 66.5 251t181 182t249.5 67q136 0 251 -67t182 -182t67 -251zM961 940q0 161 -114.5 275t-275.5 114t-276 -114t-115 -275t114.5 -274t276.5 -113t276 113t114 274zM752 682
q0 -8 -9.5 -10t-40.5 -2q-49 0 -49 12v172q0 20 -19 35.5t-54 15.5q-42 0 -59 -3t-17 -17v-203q0 -8 -8.5 -10t-42.5 -2q-45 0 -45 12v524q0 15 8 21q12 4 35 4h129q44 0 77 -11.5t50.5 -27.5t28 -37.5t13.5 -37t3 -30.5v-28q0 -40 -21.5 -65.5t-42.5 -31.5l-22 -6l22 -4
q21 -5 42.5 -24.5t21.5 -57.5v-188zM645 1049q0 -31 -19 -41.5t-75 -10.5q-33 0 -41 2q-6 2 -6 15v100v27h43q58 0 78 -11.5t20 -46.5v-34z" />
    <glyph glyph-name="macron" unicode="&#xaf;" horiz-adv-x="698" 
d="M588 1204q9 0 12.5 -37t-1 -73.5t-13.5 -36.5l-79 -4q-79 -4 -159 -4q-73 0 -154.5 -2.5t-84.5 -2.5q-9 0 -11 39t4 78t15 39q5 0 92 3t139 3q53 0 140 -1t100 -1z" />
    <glyph glyph-name="degree" unicode="&#xb0;" horiz-adv-x="587" 
d="M492 1233q0 -106 -44.5 -156t-148.5 -53q-94 -3 -162.5 62t-58.5 157q13 119 60.5 160t154.5 35q85 -6 142 -64t57 -141zM385 1229q5 45 -21 74.5t-71 29.5q-58 1 -79 -20.5t-26 -79.5q-3 -47 30 -75t77 -28q50 0 70 23.5t20 75.5z" />
    <glyph glyph-name="plusminus" unicode="&#xb1;" horiz-adv-x="1247" 
d="M1174 33q0 -23 -16 -28t-99 -5q-74 0 -88.5 4t-14.5 25v1370q0 23 16.5 28t86.5 5q78 0 96.5 -5.5t18.5 -29.5v-1364zM887 856q0 -48 -3.5 -67t-6.5 -20t-17 -1q-80 0 -97.5 -5t-17.5 -30v-696q0 -27 -14.5 -32t-89.5 -5q-76 0 -92.5 4.5t-16.5 28.5v700q0 25 -9 31
t-48 6h-45q-79 0 -97 -6t-18 -31v-696q0 -27 -14.5 -32t-89.5 -5q-76 0 -92.5 4.5t-16.5 28.5v700q0 25 -9 31t-48 6h-1q-17 0 -20.5 12t-3.5 76q0 67 3.5 86t17.5 19q21 0 30.5 0.5t17.5 4.5t11 13q2 18 2 113q0 90 24 152.5t83 115.5q33 29 93.5 50.5t131.5 21.5
q12 0 14.5 -14t2.5 -64v-29q0 -47 -2 -69t-6 -28.5t-13 -6.5q-25 0 -52 -14t-42 -35q-21 -33 -21 -121q0 -54 4 -72q1 -7 8.5 -10.5t25 -5.5t28.5 -2h37h14h39q21 0 30.5 0.5t17.5 4.5t11 13q2 18 2 113q0 90 24 152.5t83 115.5q33 29 93.5 50.5t131.5 21.5q12 0 14.5 -14
t2.5 -64v-29q0 -47 -2 -69t-6 -28.5t-13 -6.5q-25 0 -52 -14t-42 -35q-21 -33 -21 -121q0 -49 5 -72q1 -7 8.5 -10.5t24.5 -5.5t28 -2h37h14q17 0 21 -19t4 -88z" />
    <glyph glyph-name="twosuperior" unicode="&#xb2;" 
d="M791 735q0 61 -4 73.5t-27 12.5h-88q-17 0 -21 5.5t-4 21.5v299q0 27 -15.5 44t-35.5 17h-90q-19 0 -19 17v176q0 22 -15.5 27.5t-65.5 5.5q-45 0 -63.5 -6t-18.5 -25v-180q0 -15 -15 -15h-86q-16 0 -37.5 -19t-21.5 -38v-297q0 -25 -8 -30q-6 -3 -17 -3h-86
q-23 0 -28 -13.5t-5 -72.5q0 -51 5.5 -64.5t25.5 -13.5h86q19 0 23 -4.5t4 -21.5v-350q0 -21 15 -38.5t38 -17.5h94q8 0 10.5 -2.5t2.5 -11.5v-184q0 -21 12 -24t70 -3t69.5 4t11.5 27v176q0 18 15 18h100q19 0 32 16t13 48v342q0 17 4 21.5t23 4.5h90q19 0 23 11t4 55v12z
M481 416q0 -20 -8.5 -27.5t-26.5 -7.5h-81q-18 0 -26.5 7.5t-8.5 27.5v604q0 31 30 31h91q30 0 30 -31v-604z" />
    <glyph glyph-name="threesuperior" unicode="&#xb3;" 
d="M791 735q0 61 -4 73.5t-27 12.5h-88q-17 0 -21 5.5t-4 21.5v299q0 27 -15.5 44t-35.5 17h-90q-19 0 -19 17v176q0 22 -15.5 27.5t-65.5 5.5q-45 0 -63.5 -6t-18.5 -25v-180q0 -15 -15 -15h-86q-16 0 -37.5 -19t-21.5 -38v-297q0 -25 -8 -30q-6 -3 -17 -3h-86
q-23 0 -28 -13.5t-5 -72.5q0 -51 5.5 -64.5t25.5 -13.5h86q19 0 23 -4.5t4 -21.5v-350q0 -21 15 -38.5t38 -17.5h94q8 0 10.5 -2.5t2.5 -11.5v-184q0 -21 12 -24t70 -3t69.5 4t11.5 27v176q0 18 15 18h100q19 0 32 16t13 48v342q0 17 4 21.5t23 4.5h90q19 0 23 11t4 55v12z
M481 416q0 -20 -8.5 -27.5t-26.5 -7.5h-81q-18 0 -26.5 7.5t-8.5 27.5v604q0 31 30 31h91q30 0 30 -31v-604z" />
    <glyph glyph-name="acute" unicode="&#xb4;" horiz-adv-x="698" 
d="M524 1284q12 -16 0 -32t-26 -25q-36 -17 -83 -37t-90.5 -40t-99.5 -48q-43 -19 -47 16q-7 37 -33 88q-7 15 13 33.5t59 36.5q123 51 201 90q34 14 47.5 14.5t21.5 -16.5q32 -73 37 -80z" />
    <glyph glyph-name="mu" unicode="&#xb5;" 
d="M791 735q0 61 -4 73.5t-27 12.5h-88q-17 0 -21 5.5t-4 21.5v299q0 27 -15.5 44t-35.5 17h-90q-19 0 -19 17v176q0 22 -15.5 27.5t-65.5 5.5q-45 0 -63.5 -6t-18.5 -25v-180q0 -15 -15 -15h-86q-16 0 -37.5 -19t-21.5 -38v-297q0 -25 -8 -30q-6 -3 -17 -3h-86
q-23 0 -28 -13.5t-5 -72.5q0 -51 5.5 -64.5t25.5 -13.5h86q19 0 23 -4.5t4 -21.5v-350q0 -21 15 -38.5t38 -17.5h94q8 0 10.5 -2.5t2.5 -11.5v-184q0 -21 12 -24t70 -3t69.5 4t11.5 27v176q0 18 15 18h100q19 0 32 16t13 48v342q0 17 4 21.5t23 4.5h90q19 0 23 11t4 55v12z
M481 416q0 -20 -8.5 -27.5t-26.5 -7.5h-81q-18 0 -26.5 7.5t-8.5 27.5v604q0 31 30 31h91q30 0 30 -31v-604z" />
    <glyph glyph-name="paragraph" unicode="&#xb6;" horiz-adv-x="837" 
d="M756 37q0 -26 -13 -31.5t-59 -5.5h-11q-47 0 -56 4.5t-9 28.5v1132q0 39 -4.5 48.5t-25.5 9.5q-18 0 -22.5 -10t-4.5 -48v-1120q0 -32 -12.5 -38.5t-65.5 -6.5h-9q-42 0 -51.5 4.5t-9.5 28.5v436q0 36 -11 49.5t-34 13.5q-53 0 -106 19.5t-98.5 56.5t-74 99t-28.5 139
v278q0 74 28.5 135t73.5 98t96.5 57t102.5 20h342q38 0 49 -13q13 -16 13 -51v-1333zM403 793v389q0 26 -6 31.5t-30 5.5q-40 0 -67.5 -40t-27.5 -98v-196q0 -56 26.5 -96.5t59.5 -40.5q32 0 38.5 6.5t6.5 38.5z" />
    <glyph glyph-name="periodcentered" unicode="&#xb7;" horiz-adv-x="303" 
d="M252 784q2 -52 -17.5 -79t-82.5 -33q-49 -4 -76 30t-25 82q0 48 25.5 80.5t77.5 28.5q98 -8 98 -109z" />
    <glyph glyph-name="cedilla" unicode="&#xb8;" horiz-adv-x="698" 
d="M406 -55q0 -77 -56 -135t-133 -58q-8 0 -8 51q0 66 6 66q28 0 53 21.5t25 52.5v139q8 16 57 16h7q49 0 49 -14v-139z" />
    <glyph glyph-name="onesuperior" unicode="&#xb9;" 
d="M791 735q0 61 -4 73.5t-27 12.5h-88q-17 0 -21 5.5t-4 21.5v299q0 27 -15.5 44t-35.5 17h-90q-19 0 -19 17v176q0 22 -15.5 27.5t-65.5 5.5q-45 0 -63.5 -6t-18.5 -25v-180q0 -15 -15 -15h-86q-16 0 -37.5 -19t-21.5 -38v-297q0 -25 -8 -30q-6 -3 -17 -3h-86
q-23 0 -28 -13.5t-5 -72.5q0 -51 5.5 -64.5t25.5 -13.5h86q19 0 23 -4.5t4 -21.5v-350q0 -21 15 -38.5t38 -17.5h94q8 0 10.5 -2.5t2.5 -11.5v-184q0 -21 12 -24t70 -3t69.5 4t11.5 27v176q0 18 15 18h100q19 0 32 16t13 48v342q0 17 4 21.5t23 4.5h90q19 0 23 11t4 55v12z
M481 416q0 -20 -8.5 -27.5t-26.5 -7.5h-81q-18 0 -26.5 7.5t-8.5 27.5v604q0 31 30 31h91q30 0 30 -31v-604z" />
    <glyph glyph-name="ordmasculine" unicode="&#xba;" horiz-adv-x="368" 
d="M285 1159q0 -58 -32.5 -88.5t-88.5 -30.5q-52 0 -84.5 32t-32.5 87v158q0 53 32.5 86t84.5 33q54 0 87.5 -32.5t33.5 -86.5v-158zM289 948q0 -45 -6 -45h-224q-12 0 -15 9.5t-3 37.5q0 24 4 32.5t16 8.5h220q8 0 8 -43zM190 1178v120q0 45 -26 45q-27 0 -27 -45v-120
q0 -43 27 -43q16 0 21 10.5t5 32.5z" />
    <glyph glyph-name="guillemotright" unicode="&#xbb;" horiz-adv-x="645" 
d="M627 504q0 -15 -63 -120.5t-111 -178.5q-37 -54 -52 -45q-7 4 -30.5 20t-34.5 19q-34 7 -10 49q139 240 139 256q0 18 -137 258q-24 42 10 49q11 3 38.5 20.5t33.5 20.5q8 5 23 -9t30 -40q49 -78 106.5 -181t57.5 -118zM342 504q0 -15 -63.5 -121t-112.5 -180
q-34 -52 -49 -43q-7 4 -31 20t-35 19q-34 7 -10 49q139 240 139 256q0 18 -137 258q-24 42 10 49q11 3 38.5 20.5t33.5 20.5q8 5 22.5 -8t26.5 -37q44 -68 106 -177.5t62 -125.5z" />
    <glyph glyph-name="onequarter" unicode="&#xbc;" 
d="M791 735q0 61 -4 73.5t-27 12.5h-88q-17 0 -21 5.5t-4 21.5v299q0 27 -15.5 44t-35.5 17h-90q-19 0 -19 17v176q0 22 -15.5 27.5t-65.5 5.5q-45 0 -63.5 -6t-18.5 -25v-180q0 -15 -15 -15h-86q-16 0 -37.5 -19t-21.5 -38v-297q0 -25 -8 -30q-6 -3 -17 -3h-86
q-23 0 -28 -13.5t-5 -72.5q0 -51 5.5 -64.5t25.5 -13.5h86q19 0 23 -4.5t4 -21.5v-350q0 -21 15 -38.5t38 -17.5h94q8 0 10.5 -2.5t2.5 -11.5v-184q0 -21 12 -24t70 -3t69.5 4t11.5 27v176q0 18 15 18h100q19 0 32 16t13 48v342q0 17 4 21.5t23 4.5h90q19 0 23 11t4 55v12z
M481 416q0 -20 -8.5 -27.5t-26.5 -7.5h-81q-18 0 -26.5 7.5t-8.5 27.5v604q0 31 30 31h91q30 0 30 -31v-604z" />
    <glyph glyph-name="onehalf" unicode="&#xbd;" 
d="M791 735q0 61 -4 73.5t-27 12.5h-88q-17 0 -21 5.5t-4 21.5v299q0 27 -15.5 44t-35.5 17h-90q-19 0 -19 17v176q0 22 -15.5 27.5t-65.5 5.5q-45 0 -63.5 -6t-18.5 -25v-180q0 -15 -15 -15h-86q-16 0 -37.5 -19t-21.5 -38v-297q0 -25 -8 -30q-6 -3 -17 -3h-86
q-23 0 -28 -13.5t-5 -72.5q0 -51 5.5 -64.5t25.5 -13.5h86q19 0 23 -4.5t4 -21.5v-350q0 -21 15 -38.5t38 -17.5h94q8 0 10.5 -2.5t2.5 -11.5v-184q0 -21 12 -24t70 -3t69.5 4t11.5 27v176q0 18 15 18h100q19 0 32 16t13 48v342q0 17 4 21.5t23 4.5h90q19 0 23 11t4 55v12z
M481 416q0 -20 -8.5 -27.5t-26.5 -7.5h-81q-18 0 -26.5 7.5t-8.5 27.5v604q0 31 30 31h91q30 0 30 -31v-604z" />
    <glyph glyph-name="threequarters" unicode="&#xbe;" 
d="M791 735q0 61 -4 73.5t-27 12.5h-88q-17 0 -21 5.5t-4 21.5v299q0 27 -15.5 44t-35.5 17h-90q-19 0 -19 17v176q0 22 -15.5 27.5t-65.5 5.5q-45 0 -63.5 -6t-18.5 -25v-180q0 -15 -15 -15h-86q-16 0 -37.5 -19t-21.5 -38v-297q0 -25 -8 -30q-6 -3 -17 -3h-86
q-23 0 -28 -13.5t-5 -72.5q0 -51 5.5 -64.5t25.5 -13.5h86q19 0 23 -4.5t4 -21.5v-350q0 -21 15 -38.5t38 -17.5h94q8 0 10.5 -2.5t2.5 -11.5v-184q0 -21 12 -24t70 -3t69.5 4t11.5 27v176q0 18 15 18h100q19 0 32 16t13 48v342q0 17 4 21.5t23 4.5h90q19 0 23 11t4 55v12z
M481 416q0 -20 -8.5 -27.5t-26.5 -7.5h-81q-18 0 -26.5 7.5t-8.5 27.5v604q0 31 30 31h91q30 0 30 -31v-604z" />
    <glyph glyph-name="questiondown" unicode="&#xbf;" horiz-adv-x="675" 
d="M57 10v-151q0 -118 78 -193.5t213 -75.5q129 0 207 78.5t78 192.5v114q0 18 -26.5 23.5t-74.5 5.5q-112 0 -112 -27v-71q0 -107 -70 -107q-46 0 -63 27.5t-17 79.5v30.5v30.5t0.5 26.5t2 28.5t4 25t6.5 28t10 27q15 38 68.5 103.5t72.5 103.5q18 35 27 75t10 62.5
t-0.5 81t-1.5 78.5q0 13 -7 21t-26 10.5t-29 3t-40 0.5q-113 4 -113 -29q0 -12 0.5 -51t0 -50t-2.5 -41.5t-7 -44.5t-13 -37.5t-21 -42.5t-31 -40q-61 -72 -92 -136.5t-31 -158.5zM250 915q-1 -36 -1 -64t26.5 -47t86.5 -24q52 -9 88.5 37.5t30.5 104.5q-6 56 -30 87t-89 27
q-47 -3 -78 -37t-34 -84z" />
    <glyph glyph-name="Agrave" unicode="&#xc0;" horiz-adv-x="681" 
d="M651 20q1 -7 -5 -11.5t-23.5 -6.5t-28.5 -2h-38h-17h-19h-34t-24 2.5t-19 8t-7 14.5q-7 54 -20 149.5t-21 155.5q0 4 -2 7t-5 5t-6.5 3t-9.5 1h-10h-12.5h-13.5h-12h-11.5h-9.5h-8t-7 -1t-6 -2t-4 -3t-3 -4.5t-1 -5.5q-20 -194 -30 -310q-1 -14 -21.5 -17t-70.5 -3h-21
q-102 0 -100 18q164 1153 196 1387q4 31 107 31q49 0 78 -7t34 -30q28 -187 66 -447t70.5 -477.5t68.5 -454.5zM379 514q-4 56 -12.5 182t-14.5 217q0 14 -4.5 35t-13.5 21q-7 0 -10.5 -26t-1.5 -34q-5 -72 -29 -393q0 -10 8.5 -13t32.5 -3h11h10.5h8t7 1t5 2.5t3 4t0.5 6.5
zM522 1602q-20 -41 -30 -89q-3 -16 -12.5 -20t-37.5 6q-56 27 -98.5 46t-90 40t-83.5 37q-43 32 -25 57q13 18 35 80q4 11 13 14t22 -0.5t35 -13.5q95 -44 203 -88q84 -38 69 -69z" />
    <glyph glyph-name="Aacute" unicode="&#xc1;" horiz-adv-x="681" 
d="M651 20q1 -7 -5 -11.5t-23.5 -6.5t-28.5 -2h-38h-17h-19h-34t-24 2.5t-19 8t-7 14.5q-7 54 -20 149.5t-21 155.5q0 4 -2 7t-5 5t-6.5 3t-9.5 1h-10h-12.5h-13.5h-12h-11.5h-9.5h-8t-7 -1t-6 -2t-4 -3t-3 -4.5t-1 -5.5q-20 -194 -30 -310q-1 -14 -21.5 -17t-70.5 -3h-21
q-102 0 -100 18q164 1153 196 1387q4 31 107 31q49 0 78 -7t34 -30q28 -187 66 -447t70.5 -477.5t68.5 -454.5zM379 514q-4 56 -12.5 182t-14.5 217q0 14 -4.5 35t-13.5 21q-7 0 -10.5 -26t-1.5 -34q-5 -72 -29 -393q0 -10 8.5 -13t32.5 -3h11h10.5h8t7 1t5 2.5t3 4t0.5 6.5
zM524 1679q12 -16 0 -32t-26 -25q-36 -17 -83 -37t-90.5 -40t-99.5 -48q-43 -19 -47 16q-8 38 -33 89q-7 15 12.5 33t59.5 36q123 51 201 90q34 14 47.5 14.5t21.5 -16.5q32 -73 37 -80z" />
    <glyph glyph-name="Acircumflex" unicode="&#xc2;" horiz-adv-x="681" 
d="M651 20q1 -7 -5 -11.5t-23.5 -6.5t-28.5 -2h-38h-17h-19h-34t-24 2.5t-19 8t-7 14.5q-7 54 -20 149.5t-21 155.5q0 4 -2 7t-5 5t-6.5 3t-9.5 1h-10h-12.5h-13.5h-12h-11.5h-9.5h-8t-7 -1t-6 -2t-4 -3t-3 -4.5t-1 -5.5q-20 -194 -30 -310q-1 -14 -21.5 -17t-70.5 -3h-21
q-102 0 -100 18q164 1153 196 1387q4 31 107 31q49 0 78 -7t34 -30q28 -187 66 -447t70.5 -477.5t68.5 -454.5zM379 514q-4 56 -12.5 182t-14.5 217q0 14 -4.5 35t-13.5 21q-7 0 -10.5 -26t-1.5 -34q-5 -72 -29 -393q0 -10 8.5 -13t32.5 -3h11h10.5h8t7 1t5 2.5t3 4t0.5 6.5
zM573 1579q0 -11 -18 -45t-20 -41q-4 -17 -15.5 -22.5t-34.5 12.5q-135 131 -149 131t-150 -129q-24 -18 -34.5 -12.5t-14.5 22.5q-2 6 -22 43t-19 49q-1 5 4 11t15 15t21 17t28.5 21t30.5 24q12 10 33.5 27.5t34 27.5t28 21t26.5 16t19 5q4 0 9.5 -2t12.5 -6t13.5 -8.5
t16 -11.5t17 -13t18.5 -15.5t18.5 -16t20 -17.5t19.5 -17q13 -11 29 -23.5t25.5 -20t18.5 -15.5t13.5 -14.5t5.5 -12.5z" />
    <glyph glyph-name="Atilde" unicode="&#xc3;" horiz-adv-x="681" 
d="M651 20q1 -7 -5 -11.5t-23.5 -6.5t-28.5 -2h-38h-17h-19h-34t-24 2.5t-19 8t-7 14.5q-7 54 -20 149.5t-21 155.5q0 4 -2 7t-5 5t-6.5 3t-9.5 1h-10h-12.5h-13.5h-12h-11.5h-9.5h-8t-7 -1t-6 -2t-4 -3t-3 -4.5t-1 -5.5q-20 -194 -30 -310q-1 -14 -21.5 -17t-70.5 -3h-21
q-102 0 -100 18q164 1153 196 1387q4 31 107 31q49 0 78 -7t34 -30q28 -187 66 -447t70.5 -477.5t68.5 -454.5zM379 514q-4 56 -12.5 182t-14.5 217q0 14 -4.5 35t-13.5 21q-7 0 -10.5 -26t-1.5 -34q-5 -72 -29 -393q0 -10 8.5 -13t32.5 -3h11h10.5h8t7 1t5 2.5t3 4t0.5 6.5
zM575 1616q1 -5 1.5 -8.5t-4.5 -9.5t-9.5 -10.5t-13 -12t-16 -13t-17.5 -14t-18 -14.5q-31 -25 -46.5 -31t-37.5 -6q-49 0 -74 25q-3 3 -9 9.5t-8 8.5t-6.5 6t-6.5 5t-5.5 3.5t-5.5 3t-5.5 2t-7 1.5h-7.5q-9 0 -15.5 -3t-12 -8t-20.5 -19t-32 -28q-15 -11 -30.5 -7.5
t-18.5 17.5q-3 9 -10 23.5t-17 33t-12 23.5q-13 20 77 82q61 41 88 41h12h12.5t11 -1t12.5 -3.5t12 -6.5t14 -11l20 -20t16.5 -16t11.5 -7.5t14 -3.5q3 0 5.5 0.5t5 1.5t5.5 3t5.5 3.5t7 5t7.5 6t8 8t9 9t11.5 10.5t12.5 12q19 17 31.5 11.5t16.5 -21.5q3 -10 38 -80z" />
    <glyph glyph-name="Adieresis" unicode="&#xc4;" horiz-adv-x="681" 
d="M651 20q1 -7 -5 -11.5t-23.5 -6.5t-28.5 -2h-38h-17h-19h-34t-24 2.5t-19 8t-7 14.5q-7 54 -20 149.5t-21 155.5q0 4 -2 7t-5 5t-6.5 3t-9.5 1h-10h-12.5h-13.5h-12h-11.5h-9.5h-8t-7 -1t-6 -2t-4 -3t-3 -4.5t-1 -5.5q-20 -194 -30 -310q-1 -14 -21.5 -17t-70.5 -3h-21
q-102 0 -100 18q164 1153 196 1387q4 31 107 31q49 0 78 -7t34 -30q28 -187 66 -447t70.5 -477.5t68.5 -454.5zM379 514q-4 56 -12.5 182t-14.5 217q0 14 -4.5 35t-13.5 21q-7 0 -10.5 -26t-1.5 -34q-5 -72 -29 -393q0 -10 8.5 -13t32.5 -3h11h10.5h8t7 1t5 2.5t3 4t0.5 6.5
zM606 1606q0 -49 -22 -77t-80 -34q-53 -4 -78 28.5t-23 82.5q-2 49 25.5 84.5t77.5 29.5q62 -5 81 -33.5t19 -80.5zM276 1606q0 -49 -22 -77t-78 -34q-53 -4 -77.5 28.5t-22.5 82.5q-2 49 25 84.5t77 29.5q61 -6 80.5 -34.5t17.5 -79.5z" />
    <glyph glyph-name="Aring" unicode="&#xc5;" horiz-adv-x="681" 
d="M651 20q1 -7 -5 -11.5t-23.5 -6.5t-28.5 -2h-38h-17h-19h-34t-24 2.5t-19 8t-7 14.5q-7 54 -20 149.5t-21 155.5q0 4 -2 7t-5 5t-6.5 3t-9.5 1h-10h-12.5h-13.5h-12h-11.5h-9.5h-8t-7 -1t-6 -2t-4 -3t-3 -4.5t-1 -5.5q-20 -194 -30 -310q-1 -14 -21.5 -17t-70.5 -3h-21
q-102 0 -100 18q164 1153 196 1387q4 31 107 31q49 0 78 -7t34 -30q28 -187 66 -447t70.5 -477.5t68.5 -454.5zM379 514q-4 56 -12.5 182t-14.5 217q0 14 -4.5 35t-13.5 21q-7 0 -10.5 -26t-1.5 -34q-5 -72 -29 -393q0 -10 8.5 -13t32.5 -3h11h10.5h8t7 1t5 2.5t3 4t0.5 6.5
zM475 1632q0 -68 -30 -99.5t-99 -39.5q-62 -8 -108 38t-39 109q5 42 14.5 67t28 38.5t40.5 18t60 5.5q56 1 94.5 -39.5t38.5 -97.5zM403 1630q3 30 -14.5 50.5t-46.5 19.5q-39 -1 -51.5 -14t-18.5 -54q-4 -31 19.5 -51.5t52.5 -15.5q31 5 45 19t14 46z" />
    <glyph glyph-name="AE" unicode="&#xc6;" horiz-adv-x="987" 
d="M946 102q0 -71 -3.5 -86.5t-20.5 -15.5h-404q-84 0 -84 37v293q0 7 -3 10.5t-12 5.5t-15 2h-21h-8q-8 0 -21.5 0.5t-19.5 0.5t-13.5 -1.5t-11 -4.5t-4.5 -9q-12 -59 -21 -157t-20 -157q-2 -14 -29 -17t-83 -3h-11.5h-9.5q-18 0 -30.5 0.5t-32 2t-29 5.5t-8.5 10
q42 221 80 428t86 472t84 458q3 27 14 41q13 17 47 17h578q18 0 21 -16t3 -81q0 -85 -6 -96q-6 -8 -20 -8h-205q-39 0 -47 -10q-1 -1 -3.5 -4t-2.5 -4t-1.5 -3t-1.5 -3.5t-1 -4t-1 -5.5v-6.5v-8.5v-271v-9v-10t0.5 -9.5t2 -10t4 -7.5t6.5 -7q11 -8 45 -8h98q18 0 22.5 -16.5
t4.5 -85.5q0 -68 -4 -83.5t-23 -15.5h-92q-39 0 -51 -6q-4 -3 -7 -7t-4.5 -7t-2.5 -10t-1 -10v-12.5v-12.5v-305q0 -65 11 -72q13 -8 61 -8h195q18 0 22 -15t4 -84zM436 496v491q0 3 1 28t2 54.5t1 59t-1.5 49.5t-4.5 20q-6 0 -12.5 -23t-11.5 -50l-4 -27q-6 -34 -40.5 -302
t-39.5 -294q-1 -4 3.5 -7t14 -4t18.5 -1.5t23 -0.5q7 0 15.5 -1t14 -1.5t11 0t8 2.5t2.5 7z" />
    <glyph glyph-name="Ccedilla" unicode="&#xc7;" horiz-adv-x="694" 
d="M655 287q0 -72 -23.5 -129.5t-59 -89.5t-72 -48t-68.5 -16q-4 0 -6 -4t-2.5 -11.5t-0.5 -14t0.5 -16t0.5 -13.5q0 -77 -55.5 -135t-132.5 -58q-9 0 -9 51q0 66 6 66q28 0 53 21.5t25 52.5q0 5 0.5 13.5t1 15.5t0 13.5t-2.5 10.5t-5 4q-19 0 -54 15t-78 45.5t-74 90.5
t-31 136v858q0 122 82 205.5t215 83.5q138 0 214 -84.5t76 -204.5v-111q0 -15 -21.5 -20.5t-90.5 -5.5q-78 0 -88 3q-15 5 -15 19v107q0 28 -19 57t-56 29q-42 0 -60 -34.5t-18 -82.5v-772q0 -53 16 -85t62 -32q40 0 57.5 25.5t17.5 56.5v107q0 19 15 22.5t73 3.5h7.5h7h8.5
q73 0 88.5 -6t15.5 -33v-106z" />
    <glyph glyph-name="Egrave" unicode="&#xc8;" horiz-adv-x="634" 
d="M594 102q0 -70 -4 -86t-21 -16h-393q-7 0 -19.5 -0.5t-20 -0.5t-16.5 1t-15.5 3t-10.5 5q-5 4 -7.5 9.5t-3.5 14.5t-1.5 14.5t0 16.5t0.5 15v1294q0 19 2 25.5t12 19.5q13 17 47 17h424q18 0 21.5 -16.5t3.5 -80.5q0 -72 -3.5 -88t-23.5 -16h-205q-40 0 -47 -10
q-8 -11 -9 -15t-1 -24v-271q0 -3 -0.5 -11t0 -12.5t1.5 -10.5t3.5 -11t7.5 -8q11 -8 45 -8h99q18 0 22 -16.5t4 -85.5q0 -81 -7 -91q-6 -8 -19 -8h-92q-40 0 -52 -6q-5 -3 -8.5 -7.5t-4.5 -11.5l-1.5 -10.5t0 -14.5t0.5 -15v-305q0 -66 10 -72q13 -8 62 -8h194
q19 0 23 -15.5t4 -83.5zM502 1606q-22 -45 -31 -88q-4 -16 -12.5 -20t-36.5 5q-56 27 -98.5 46t-90 40t-83.5 37q-43 32 -25 57q13 18 35 80q4 11 13 14t21.5 -0.5t34.5 -13.5q95 -44 203 -88q39 -18 58 -36t12 -33z" />
    <glyph glyph-name="Eacute" unicode="&#xc9;" horiz-adv-x="634" 
d="M594 102q0 -70 -4 -86t-21 -16h-393q-7 0 -19.5 -0.5t-20 -0.5t-16.5 1t-15.5 3t-10.5 5q-5 4 -7.5 9.5t-3.5 14.5t-1.5 14.5t0 16.5t0.5 15v1294q0 19 2 25.5t12 19.5q13 17 47 17h424q18 0 21.5 -16.5t3.5 -80.5q0 -72 -3.5 -88t-23.5 -16h-205q-40 0 -47 -10
q-8 -11 -9 -15t-1 -24v-271q0 -3 -0.5 -11t0 -12.5t1.5 -10.5t3.5 -11t7.5 -8q11 -8 45 -8h99q18 0 22 -16.5t4 -85.5q0 -81 -7 -91q-6 -8 -19 -8h-92q-40 0 -52 -6q-5 -3 -8.5 -7.5t-4.5 -11.5l-1.5 -10.5t0 -14.5t0.5 -15v-305q0 -66 10 -72q13 -8 62 -8h194
q19 0 23 -15.5t4 -83.5zM522 1679q12 -16 0 -32t-26 -25q-36 -17 -83 -37t-90.5 -40t-99.5 -48q-43 -19 -47 16q-8 38 -33 89q-7 15 12.5 33t59.5 36q124 51 201 90q34 14 47.5 14.5t21.5 -16.5q32 -73 37 -80z" />
    <glyph glyph-name="Ecircumflex" unicode="&#xca;" horiz-adv-x="634" 
d="M594 102q0 -70 -4 -86t-21 -16h-393q-7 0 -19.5 -0.5t-20 -0.5t-16.5 1t-15.5 3t-10.5 5q-5 4 -7.5 9.5t-3.5 14.5t-1.5 14.5t0 16.5t0.5 15v1294q0 19 2 25.5t12 19.5q13 17 47 17h424q18 0 21.5 -16.5t3.5 -80.5q0 -72 -3.5 -88t-23.5 -16h-205q-40 0 -47 -10
q-8 -11 -9 -15t-1 -24v-271q0 -3 -0.5 -11t0 -12.5t1.5 -10.5t3.5 -11t7.5 -8q11 -8 45 -8h99q18 0 22 -16.5t4 -85.5q0 -81 -7 -91q-6 -8 -19 -8h-92q-40 0 -52 -6q-5 -3 -8.5 -7.5t-4.5 -11.5l-1.5 -10.5t0 -14.5t0.5 -15v-305q0 -66 10 -72q13 -8 62 -8h194
q19 0 23 -15.5t4 -83.5zM569 1602q0 -11 -18.5 -45t-20.5 -41q-4 -17 -15 -23t-34 12q-135 131 -149 131t-150 -129q-24 -18 -34.5 -12.5t-14.5 23.5q-2 6 -22 43t-19 49q-1 5 3.5 11t15 15t21 17t28 21.5t30.5 23.5q10 8 33.5 27.5t34.5 27.5l27.5 20t27.5 16.5t19 4.5
q23 0 130 -93q3 -3 5 -4.5t5 -4t5 -4.5q13 -11 29 -23.5t25.5 -20t18.5 -15.5t13.5 -14.5t5.5 -12.5z" />
    <glyph glyph-name="Edieresis" unicode="&#xcb;" horiz-adv-x="634" 
d="M594 102q0 -70 -4 -86t-21 -16h-393q-7 0 -19.5 -0.5t-20 -0.5t-16.5 1t-15.5 3t-10.5 5q-5 4 -7.5 9.5t-3.5 14.5t-1.5 14.5t0 16.5t0.5 15v1294q0 19 2 25.5t12 19.5q13 17 47 17h424q18 0 21.5 -16.5t3.5 -80.5q0 -72 -3.5 -88t-23.5 -16h-205q-40 0 -47 -10
q-8 -11 -9 -15t-1 -24v-271q0 -3 -0.5 -11t0 -12.5t1.5 -10.5t3.5 -11t7.5 -8q11 -8 45 -8h99q18 0 22 -16.5t4 -85.5q0 -81 -7 -91q-6 -8 -19 -8h-92q-40 0 -52 -6q-5 -3 -8.5 -7.5t-4.5 -11.5l-1.5 -10.5t0 -14.5t0.5 -15v-305q0 -66 10 -72q13 -8 62 -8h194
q19 0 23 -15.5t4 -83.5zM612 1606q0 -49 -22 -77t-80 -34q-53 -4 -77.5 28.5t-22.5 82.5q-2 49 25 84.5t77 29.5q62 -5 81 -33.5t19 -80.5zM283 1606q0 -49 -22.5 -77t-78.5 -34q-53 -4 -77.5 28.5t-22.5 82.5q-2 49 25 84.5t77 29.5q61 -6 81 -34.5t18 -79.5z" />
    <glyph glyph-name="Igrave" unicode="&#xcc;" horiz-adv-x="382" 
d="M301 35q0 -24 -15.5 -28.5t-99.5 -4.5q-76 0 -90 4t-14 25v1368q0 23 16 28t88 5q82 0 98.5 -5t16.5 -30v-1362zM463 1606q-22 -45 -31 -88q-4 -16 -12.5 -20t-36.5 5q-56 27 -98.5 46t-90 40t-83.5 37q-43 32 -25 57q13 18 35 80q4 11 13 14t21.5 -0.5t34.5 -13.5
q95 -44 203 -88q39 -18 58 -36t12 -33z" />
    <glyph glyph-name="Iacute" unicode="&#xcd;" horiz-adv-x="382" 
d="M301 35q0 -24 -15.5 -28.5t-99.5 -4.5q-76 0 -90 4t-14 25v1368q0 23 16 28t88 5q82 0 98.5 -5t16.5 -30v-1362zM461 1679q12 -16 0 -32t-27 -25q-36 -17 -83 -37.5t-90 -40t-99 -47.5q-43 -19 -47 16q-8 38 -33 89q-7 15 12.5 33t59.5 36q118 48 200 90q34 14 48 14.5
t22 -16.5q32 -73 37 -80z" />
    <glyph glyph-name="Icircumflex" unicode="&#xce;" horiz-adv-x="382" 
d="M301 35q0 -24 -15.5 -28.5t-99.5 -4.5q-76 0 -90 4t-14 25v1368q0 23 16 28t88 5q82 0 98.5 -5t16.5 -30v-1362zM557 1579q0 -11 -18.5 -45t-20.5 -41q-2 -10 -7.5 -17t-17 -6.5t-24.5 13.5q-135 131 -150 131q-13 0 -139 -120q-2 -2 -3.5 -3t-3 -3t-3.5 -3
q-24 -18 -34.5 -12.5t-14.5 22.5q-2 6 -22 43t-19 49q-1 5 3.5 11t15 15t21 17t28 21.5t30.5 23.5q12 10 33.5 27.5t34 27.5t28 21t26.5 16t19 5q23 0 130 -93q11 -9 16 -14q13 -11 29 -23.5t25.5 -20t18.5 -15.5t13.5 -14.5t5.5 -12.5z" />
    <glyph glyph-name="Idieresis" unicode="&#xcf;" horiz-adv-x="382" 
d="M301 35q0 -24 -15.5 -28.5t-99.5 -4.5q-76 0 -90 4t-14 25v1368q0 23 16 28t88 5q82 0 98.5 -5t16.5 -30v-1362zM612 1606q0 -49 -22 -77t-80 -34q-53 -4 -77.5 28.5t-22.5 82.5q-2 49 25 84.5t77 29.5q62 -5 81 -33.5t19 -80.5zM283 1606q0 -49 -22.5 -77t-78.5 -34
q-53 -4 -77.5 28.5t-22.5 82.5q-2 49 25 84.5t77 29.5q61 -6 81 -34.5t18 -79.5z" />
    <glyph glyph-name="Eth" unicode="&#xd0;" horiz-adv-x="765" 
d="M698 311q0 -132 -88 -223q-85 -88 -235 -88h-213h-8.5h-8h-7t-6.5 0.5t-5.5 1t-5 1.5t-4 2.5t-4 3.5t-2.5 5q-9 11 -9 49v566q0 12 -43 12q-14 0 -32.5 9.5t-14.5 29.5q5 25 0 88q-1 18 13.5 24.5t50.5 6.5q26 0 26 10v561q0 40 9 51q8 9 18 11t35 2h209q151 0 241 -84
q84 -78 84 -226v-813zM477 352v729q0 81 -26 113q-25 25 -68 25q-48 0 -55 -9q-6 -8 -6 -28v-383q0 -9 39.5 -11t39.5 -8q0 -83 -2 -108q-1 -10 -3.5 -16t-11.5 -11.5t-24 -5.5q-38 0 -38 -10v-369q0 -33 8 -41q4 -4 47 -4q49 0 78 37q5 6 8.5 13t5.5 12.5t4 13.5t2.5 12.5
t1 13t0.5 11.5v12.5v11.5z" />
    <glyph glyph-name="Ntilde" unicode="&#xd1;" horiz-adv-x="792" 
d="M711 59q0 -24 -1 -32.5t-12 -16.5t-29.5 -9t-60.5 -1q-44 0 -62 9.5t-28 45.5q-36 126 -83.5 306t-80.5 298q-1 5 -7.5 29t-9.5 34.5t-8 27t-9.5 23.5t-8.5 7q-14 0 -14 -69v-674q0 -25 -17.5 -31t-95.5 -6q-53 0 -73 3t-24.5 8.5t-4.5 23.5v1370q0 21 13 25t81 4
q65 0 84.5 -11.5t30.5 -54.5q77 -286 166 -604q1 -4 3.5 -13t4 -14.5t4.5 -12t6 -10t6 -3.5q15 0 15 61v625q0 25 16.5 31t91.5 6q77 0 92 -5t15 -30v-1340zM616 1616q1 -5 1.5 -8.5t-4.5 -9.5t-9.5 -10.5t-13 -12t-16 -13t-17.5 -14t-18 -14.5q-31 -25 -46.5 -31t-37.5 -6
q-49 0 -74 25l-6 6q-21 21 -30.5 27t-25.5 6q-9 0 -15.5 -3t-11.5 -8t-20 -19t-32 -28q-15 -12 -31 -8t-19 18q-3 10 -38 80q-13 20 77 82q61 41 88 41h12h12.5t11 -1t12.5 -3.5t12 -6.5t14 -11l20 -20t16.5 -16t11.5 -7.5t14 -3.5q3 0 5.5 0.5t5 1.5t5.5 3t5.5 3.5t7 5
t7.5 6t8 8t9 9t11.5 10.5t12.5 12q19 17 31.5 11.5t16.5 -21.5q3 -10 38 -80z" />
    <glyph glyph-name="Ograve" unicode="&#xd2;" horiz-adv-x="731" 
d="M664 295q0 -134 -77 -214.5t-222 -80.5q-138 0 -217.5 83t-79.5 212v846q0 132 84 212.5t213 80.5q133 0 216 -80t83 -213v-846zM442 340v760q0 50 -18.5 86.5t-58.5 36.5q-42 0 -60 -36t-18 -87v-760q0 -22 0.5 -35.5t5 -32t12 -29t23 -18.5t37.5 -8q26 0 42.5 10.5
t23.5 30.5t9 38t2 44zM551 1589q-22 -45 -31 -88q-4 -16 -12.5 -20t-36.5 6q-56 27 -98.5 46t-90 40t-83.5 37q-43 32 -25 57q13 18 35 80q4 11 13 14t22 -0.5t35 -13.5q103 -48 202 -88q39 -18 58 -36.5t12 -33.5z" />
    <glyph glyph-name="Oacute" unicode="&#xd3;" horiz-adv-x="731" 
d="M664 295q0 -134 -77 -214.5t-222 -80.5q-138 0 -217.5 83t-79.5 212v846q0 132 84 212.5t213 80.5q133 0 216 -80t83 -213v-846zM442 340v760q0 50 -18.5 86.5t-58.5 36.5q-42 0 -60 -36t-18 -87v-760q0 -22 0.5 -35.5t5 -32t12 -29t23 -18.5t37.5 -8q26 0 42.5 10.5
t23.5 30.5t9 38t2 44zM549 1667q12 -16 0 -32t-27 -25q-36 -17 -83 -37.5t-90 -40t-99 -47.5q-43 -19 -47 16q-7 37 -33 88q-7 15 13 33.5t59 36.5q118 48 200 90q34 14 48 14.5t22 -16.5q32 -73 37 -80z" />
    <glyph glyph-name="Ocircumflex" unicode="&#xd4;" horiz-adv-x="731" 
d="M664 295q0 -134 -77 -214.5t-222 -80.5q-138 0 -217.5 83t-79.5 212v846q0 132 84 212.5t213 80.5q133 0 216 -80t83 -213v-846zM442 340v760q0 50 -18.5 86.5t-58.5 36.5q-42 0 -60 -36t-18 -87v-760q0 -22 0.5 -35.5t5 -32t12 -29t23 -18.5t37.5 -8q26 0 42.5 10.5
t23.5 30.5t9 38t2 44zM594 1567q0 -11 -18.5 -45t-20.5 -41q-4 -17 -15 -23t-34 12q-136 132 -150 132q-13 0 -139 -120q-2 -2 -3.5 -3t-3 -3t-3.5 -3q-24 -18 -34.5 -12.5t-14.5 22.5q-2 6 -22 43t-19 49q-1 5 3.5 11t15 15t21 17t28 21.5t30.5 23.5q11 9 33.5 27.5
t34 27.5t27.5 20t27 16t19 5q9 0 22.5 -7.5t40 -28.5t37 -30t46.5 -40q13 -11 29 -23.5t25.5 -20t18.5 -15.5t13.5 -14.5t5.5 -12.5z" />
    <glyph glyph-name="Otilde" unicode="&#xd5;" horiz-adv-x="731" 
d="M664 295q0 -134 -77 -214.5t-222 -80.5q-138 0 -217.5 83t-79.5 212v846q0 132 84 212.5t213 80.5q133 0 216 -80t83 -213v-846zM442 340v760q0 50 -18.5 86.5t-58.5 36.5q-42 0 -60 -36t-18 -87v-760q0 -22 0.5 -35.5t5 -32t12 -29t23 -18.5t37.5 -8q26 0 42.5 10.5
t23.5 30.5t9 38t2 44zM602 1614q1 -8 0.5 -12t-11 -14.5t-19 -17t-23.5 -18.5l-25 -20q-31 -25 -46.5 -31t-37.5 -6q-48 0 -73 25l-6 6q-21 21 -30.5 27t-25.5 6q-9 0 -15.5 -3t-12 -8t-20.5 -19t-32 -28q-15 -11 -30.5 -7.5t-18.5 17.5q-1 5 -39 80q-8 12 13.5 32t64.5 50
q61 41 88 41h12h12.5t11 -1t12.5 -3.5t12 -6.5t14 -11q9 -8 20 -19.5t15.5 -16t11.5 -8t14 -3.5q16 0 67 49q2 2 3.5 3t3.5 3l4 4q19 17 31 12t16 -22q3 -9 10 -23.5t17 -33t12 -23.5z" />
    <glyph glyph-name="Odieresis" unicode="&#xd6;" horiz-adv-x="731" 
d="M664 295q0 -134 -77 -214.5t-222 -80.5q-138 0 -217.5 83t-79.5 212v846q0 132 84 212.5t213 80.5q133 0 216 -80t83 -213v-846zM442 340v760q0 50 -18.5 86.5t-58.5 36.5q-42 0 -60 -36t-18 -87v-760q0 -22 0.5 -35.5t5 -32t12 -29t23 -18.5t37.5 -8q26 0 42.5 10.5
t23.5 30.5t9 38t2 44zM637 1606q0 -49 -22 -77t-80 -34q-53 -4 -78 28.5t-23 82.5q-2 49 25.5 84.5t77.5 29.5q62 -5 81 -33.5t19 -80.5zM307 1606q0 -49 -22 -77t-78 -34q-53 -4 -78 28.5t-23 82.5q-2 49 25.5 84.5t77.5 29.5q61 -6 80.5 -34.5t17.5 -79.5z" />
    <glyph glyph-name="multiply" unicode="&#xd7;" 
d="M791 735q0 61 -4 73.5t-27 12.5h-88q-17 0 -21 5.5t-4 21.5v299q0 27 -15.5 44t-35.5 17h-90q-19 0 -19 17v176q0 22 -15.5 27.5t-65.5 5.5q-45 0 -63.5 -6t-18.5 -25v-180q0 -15 -15 -15h-86q-16 0 -37.5 -19t-21.5 -38v-297q0 -25 -8 -30q-6 -3 -17 -3h-86
q-23 0 -28 -13.5t-5 -72.5q0 -51 5.5 -64.5t25.5 -13.5h86q19 0 23 -4.5t4 -21.5v-350q0 -21 15 -38.5t38 -17.5h94q8 0 10.5 -2.5t2.5 -11.5v-184q0 -21 12 -24t70 -3t69.5 4t11.5 27v176q0 18 15 18h100q19 0 32 16t13 48v342q0 17 4 21.5t23 4.5h90q19 0 23 11t4 55v12z
M481 416q0 -20 -8.5 -27.5t-26.5 -7.5h-81q-18 0 -26.5 7.5t-8.5 27.5v604q0 31 30 31h91q30 0 30 -31v-604z" />
    <glyph glyph-name="Oslash" unicode="&#xd8;" horiz-adv-x="731" 
d="M772 1538q-102 -269 -113 -309q-2 -8 1.5 -42t3.5 -46v-846q0 -134 -77 -214.5t-222 -80.5q-26 0 -53 4t-60.5 11.5t-34.5 7.5q-2 0 -5.5 -4.5t-7.5 -13.5t-8.5 -19t-10 -24t-9.5 -25t-9.5 -25.5t-8.5 -22.5q-11 -32 -121 -32q-19 0 -31 0.5t-26.5 3.5t-20.5 9.5t-2 16.5
q102 287 117 328q1 3 -0.5 12.5t-3.5 28t-2 39.5v846q0 132 84 212.5t213 80.5q36 0 71.5 -7.5t53.5 -13.5t22 -4q6 3 59 141q10 29 103 29q45 0 75 -10t23 -31zM442 340v760q0 50 -18.5 86.5t-58.5 36.5q-42 0 -60 -36t-18 -87v-760q0 -22 0.5 -35.5t5 -32t12 -29t23 -18.5
t37.5 -8q26 0 42.5 10.5t23.5 30.5t9 38t2 44z" />
    <glyph glyph-name="Ugrave" unicode="&#xd9;" horiz-adv-x="731" 
d="M664 287q0 -130 -79.5 -208.5t-219.5 -78.5q-134 0 -215.5 83.5t-81.5 201.5v1114q0 24 18.5 29.5t95.5 5.5q64 0 84.5 -6.5t20.5 -28.5v-1067q0 -115 78 -115q77 0 77 115v1069q0 22 17 27.5t86 5.5q54 0 78.5 -3t32.5 -9t8 -19v-1116zM547 1602q-22 -44 -31 -89
q-4 -16 -12.5 -20t-36.5 6q-56 27 -98.5 46t-90 40t-83.5 37q-43 32 -25 57q13 18 35 80q4 11 13 14t21.5 -0.5t34.5 -13.5q95 -44 203 -88q39 -18 58 -36t12 -33z" />
    <glyph glyph-name="Uacute" unicode="&#xda;" horiz-adv-x="731" 
d="M664 287q0 -130 -79.5 -208.5t-219.5 -78.5q-134 0 -215.5 83.5t-81.5 201.5v1114q0 24 18.5 29.5t95.5 5.5q64 0 84.5 -6.5t20.5 -28.5v-1067q0 -115 78 -115q77 0 77 115v1069q0 22 17 27.5t86 5.5q54 0 78.5 -3t32.5 -9t8 -19v-1116zM561 1679q12 -16 0 -32t-26 -25
q-36 -17 -83 -37t-90.5 -40t-99.5 -48q-43 -19 -47 16q-8 38 -33 89q-7 15 12.5 33t59.5 36q124 51 201 90q34 14 47.5 14.5t21.5 -16.5q32 -73 37 -80z" />
    <glyph glyph-name="Ucircumflex" unicode="&#xdb;" horiz-adv-x="731" 
d="M664 287q0 -130 -79.5 -208.5t-219.5 -78.5q-134 0 -215.5 83.5t-81.5 201.5v1114q0 24 18.5 29.5t95.5 5.5q64 0 84.5 -6.5t20.5 -28.5v-1067q0 -115 78 -115q77 0 77 115v1069q0 22 17 27.5t86 5.5q54 0 78.5 -3t32.5 -9t8 -19v-1116zM604 1589q0 -11 -18.5 -45
t-20.5 -41q-2 -10 -7.5 -17t-17 -6.5t-24.5 13.5q-135 131 -149 131t-150 -129q-24 -18 -34.5 -12.5t-14.5 22.5q-2 6 -22 43t-19 49q-1 5 3.5 11t15 15t21 17t28 22t30.5 24q10 8 33.5 27.5t34.5 27.5l27.5 20t27.5 16.5t19 4.5q4 0 9.5 -2t12.5 -6t13.5 -8.5t16 -11.5
t17 -13t18.5 -15.5t18.5 -16t20 -17.5t19.5 -17q13 -11 29 -23.5t25.5 -20t18.5 -15.5t13.5 -14.5t5.5 -12.5z" />
    <glyph glyph-name="Udieresis" unicode="&#xdc;" horiz-adv-x="731" 
d="M664 287q0 -130 -79.5 -208.5t-219.5 -78.5q-134 0 -215.5 83.5t-81.5 201.5v1114q0 24 18.5 29.5t95.5 5.5q64 0 84.5 -6.5t20.5 -28.5v-1067q0 -115 78 -115q77 0 77 115v1069q0 22 17 27.5t86 5.5q54 0 78.5 -3t32.5 -9t8 -19v-1116zM631 1606q0 -49 -22.5 -77
t-80.5 -34q-53 -4 -77.5 28.5t-22.5 82.5q-2 49 25 84.5t77 29.5q62 -5 81.5 -33.5t19.5 -80.5zM301 1606q0 -49 -22 -77t-78 -34q-53 -4 -78 28.5t-23 82.5q-2 49 25.5 84.5t77.5 29.5q61 -6 80.5 -34.5t17.5 -79.5z" />
    <glyph glyph-name="Yacute" unicode="&#xdd;" horiz-adv-x="651" 
d="M621 1403q-83 -396 -148 -670q-4 -19 -8 -41t-8 -46t-6 -34q-13 -58 -13 -108v-488q0 -16 -112 -16q-109 0 -109 23q0 81 1 231.5t1 243.5q0 66 -6 100q-2 15 -13.5 60.5t-15.5 62.5q-111 484 -153 682q-2 10 6.5 16t25 8.5t30 3.5t30.5 1q59 0 90.5 -6t34.5 -27
q14 -99 37 -267.5t32 -236.5q0 -5 4 -11.5t9 -6.5q10 0 10 20q15 103 36 270t30 232q5 33 114 33q25 0 40.5 -1t32 -3.5t23.5 -8.5t5 -16zM528 1679q12 -16 0 -32t-26 -25q-36 -17 -83 -37t-90.5 -40t-99.5 -48q-43 -19 -47 16q-8 42 -32 89q-7 15 12.5 33t58.5 36
q123 51 201 90q34 14 48 14.5t22 -16.5q3 -6 10.5 -25.5t14 -33.5t11.5 -21z" />
    <glyph glyph-name="Thorn" unicode="&#xde;" horiz-adv-x="729" 
d="M678 600q0 -143 -103 -238q-84 -75 -229 -75q-23 0 -34 -14t-11 -50v-190q0 -24 -17.5 -28.5t-83.5 -4.5h-14q-72 0 -88 6t-16 39v1325q0 38 10 51q9 13 51 13h127q18 0 24.5 -28.5t6.5 -92.5q0 -66 4 -92.5t13 -34.5t34 -8q140 0 226 -72q100 -81 100 -238v-268z
M457 629v196q0 80 -27 113q-25 25 -68 25q-46 0 -55 -9q-6 -8 -6 -28v-389v-8v-8t0.5 -7t1 -7t2 -5t3.5 -5t5 -3q10 -2 45 -2q47 0 74 32q12 15 17.5 33t6.5 29.5t1 34.5v8z" />
    <glyph glyph-name="germandbls" unicode="&#xdf;" horiz-adv-x="731" 
d="M664 303q0 -139 -80 -221t-213 -82q-13 0 -17 20t-4 89q0 46 2.5 69.5t6.5 30t12 6.5q82 0 82 129v223q0 47 -23.5 83t-64.5 36q-12 0 -15.5 13t-3.5 63q0 53 3 66.5t16 13.5q42 0 65 33t23 81v160q0 49 -22 79t-62 30t-61 -31t-21 -80v-1085q0 -28 -103 -31
q-116 -3 -116 31v1132q0 120 86 196.5t211 76.5q128 0 213.5 -76t85.5 -199v-231q0 -50 -39 -107q-10 -13 -22.5 -23t-25 -18t-16.5 -12q1 -1 25.5 -16.5t38.5 -32.5q39 -68 39 -125v-291z" />
    <glyph glyph-name="agrave" unicode="&#xe0;" horiz-adv-x="706" 
d="M645 20q0 -17 -17 -19q-5 -1 -75 -1q-76 0 -93.5 4.5t-17.5 26.5q0 36 -2 38q-3 4 -10 -1q-1 -1 -9 -11t-13 -15t-16 -14.5t-21.5 -14.5t-26.5 -9t-33 -4q-119 0 -189.5 73.5t-70.5 217.5v399q0 79 23 138t61 92t82 49t92 16q69 0 115 -59q13 -17 15 5q1 8 1 27t20.5 24
t90.5 5h9q56 0 70.5 -3t14.5 -19v-945zM430 354v283q0 135 -82 135t-82 -135v-283q0 -66 17.5 -101.5t64.5 -35.5t64.5 35.5t17.5 101.5zM547 1200q-22 -45 -31 -88q-4 -16 -12.5 -20t-36.5 6q-56 27 -98.5 46t-90 40t-83.5 37q-43 32 -25 57q13 18 35 80q4 11 13 14
t21.5 -0.5t34.5 -13.5q95 -44 203 -88q39 -18 58 -36.5t12 -33.5z" />
    <glyph glyph-name="aacute" unicode="&#xe1;" horiz-adv-x="706" 
d="M645 20q0 -17 -17 -19q-5 -1 -75 -1q-76 0 -93.5 4.5t-17.5 26.5q0 36 -2 38q-3 4 -10 -1q-1 -1 -9 -11t-13 -15t-16 -14.5t-21.5 -14.5t-26.5 -9t-33 -4q-119 0 -189.5 73.5t-70.5 217.5v399q0 79 23 138t61 92t82 49t92 16q69 0 115 -59q13 -17 15 5q1 8 1 27t20.5 24
t90.5 5h9q56 0 70.5 -3t14.5 -19v-945zM430 354v283q0 135 -82 135t-82 -135v-283q0 -66 17.5 -101.5t64.5 -35.5t64.5 35.5t17.5 101.5zM561 1278q12 -16 0 -32t-26 -25q-36 -17 -83 -37t-90.5 -40t-99.5 -48q-43 -19 -47 16q-7 37 -33 88q-7 15 13 33.5t59 36.5
q124 51 201 90q34 14 47.5 14.5t21.5 -16.5q32 -73 37 -80z" />
    <glyph glyph-name="acircumflex" unicode="&#xe2;" horiz-adv-x="706" 
d="M645 20q0 -17 -17 -19q-5 -1 -75 -1q-76 0 -93.5 4.5t-17.5 26.5q0 36 -2 38q-3 4 -10 -1q-1 -1 -9 -11t-13 -15t-16 -14.5t-21.5 -14.5t-26.5 -9t-33 -4q-119 0 -189.5 73.5t-70.5 217.5v399q0 79 23 138t61 92t82 49t92 16q69 0 115 -59q13 -17 15 5q1 8 1 27t20.5 24
t90.5 5h9q56 0 70.5 -3t14.5 -19v-945zM430 354v283q0 135 -82 135t-82 -135v-283q0 -66 17.5 -101.5t64.5 -35.5t64.5 35.5t17.5 101.5zM600 1176q0 -11 -18.5 -45t-20.5 -41q-4 -17 -15 -23t-34 12q-135 131 -150 131q-13 0 -139 -120q-2 -2 -3.5 -3t-3 -3t-3.5 -3
q-24 -18 -34.5 -12.5t-14.5 23.5q-2 6 -22 43t-19 49q-1 5 3.5 11t15 15t21 17t28 21.5t30.5 23.5q11 9 33.5 27.5t34 27.5t27.5 20t27 16t19 5q9 0 22.5 -7.5t40 -28.5t37 -30t46.5 -40q13 -11 29 -23.5t25.5 -20t18.5 -15.5t13.5 -14.5t5.5 -12.5z" />
    <glyph glyph-name="atilde" unicode="&#xe3;" horiz-adv-x="706" 
d="M645 20q0 -17 -17 -19q-5 -1 -75 -1q-76 0 -93.5 4.5t-17.5 26.5q0 36 -2 38q-3 4 -10 -1q-1 -1 -9 -11t-13 -15t-16 -14.5t-21.5 -14.5t-26.5 -9t-33 -4q-119 0 -189.5 73.5t-70.5 217.5v399q0 79 23 138t61 92t82 49t92 16q69 0 115 -59q13 -17 15 5q1 8 1 27t20.5 24
t90.5 5h9q56 0 70.5 -3t14.5 -19v-945zM430 354v283q0 135 -82 135t-82 -135v-283q0 -66 17.5 -101.5t64.5 -35.5t64.5 35.5t17.5 101.5zM592 1208q1 -8 0.5 -12t-11 -14.5t-19 -17t-23.5 -18.5l-25 -20q-21 -18 -37 -26t-23.5 -9t-23.5 -1q-50 0 -74 24q-3 3 -9 9.5t-8 8.5
t-6.5 6t-6.5 5t-5.5 3.5t-5.5 3t-5.5 2t-7 1.5h-7.5q-9 0 -15.5 -3t-11.5 -7.5t-20.5 -18.5t-32.5 -28q-15 -11 -30.5 -7.5t-18.5 17.5q-1 5 -39 80q-8 12 13.5 32t64.5 50q61 41 88 41h11.5h12.5t11 -1.5t13 -3.5t11.5 -6.5t14.5 -11.5q9 -8 20 -19.5t15.5 -16t11.5 -8
t14 -3.5q16 0 67 49q2 2 3.5 3t3.5 3l4 4q19 17 31 12t16 -22q1 -5 39 -80z" />
    <glyph glyph-name="adieresis" unicode="&#xe4;" horiz-adv-x="706" 
d="M645 20q0 -17 -17 -19q-5 -1 -75 -1q-76 0 -93.5 4.5t-17.5 26.5q0 36 -2 38q-3 4 -10 -1q-1 -1 -9 -11t-13 -15t-16 -14.5t-21.5 -14.5t-26.5 -9t-33 -4q-119 0 -189.5 73.5t-70.5 217.5v399q0 79 23 138t61 92t82 49t92 16q69 0 115 -59q13 -17 15 5q1 8 1 27t20.5 24
t90.5 5h9q56 0 70.5 -3t14.5 -19v-945zM430 354v283q0 135 -82 135t-82 -135v-283q0 -66 17.5 -101.5t64.5 -35.5t64.5 35.5t17.5 101.5zM629 1200q0 -49 -22.5 -76.5t-80.5 -33.5q-53 -4 -77.5 28t-22.5 82q-2 49 25 85t77 30q62 -5 81.5 -34t19.5 -81zM299 1200
q0 -49 -22 -76.5t-78 -33.5q-53 -4 -78 28.5t-23 81.5q-2 49 25.5 85t77.5 30q61 -6 80.5 -35t17.5 -80z" />
    <glyph glyph-name="aring" unicode="&#xe5;" horiz-adv-x="706" 
d="M645 20q0 -17 -17 -19q-5 -1 -75 -1q-76 0 -93.5 4.5t-17.5 26.5q0 36 -2 38q-3 4 -10 -1q-1 -1 -9 -11t-13 -15t-16 -14.5t-21.5 -14.5t-26.5 -9t-33 -4q-119 0 -189.5 73.5t-70.5 217.5v399q0 79 23 138t61 92t82 49t92 16q69 0 115 -59q13 -17 15 5q1 8 1 27t20.5 24
t90.5 5h9q56 0 70.5 -3t14.5 -19v-945zM430 354v283q0 135 -82 135t-82 -135v-283q0 -66 17.5 -101.5t64.5 -35.5t64.5 35.5t17.5 101.5zM492 1231q0 -68 -30.5 -99.5t-99.5 -39.5q-62 -8 -108 38t-39 109q5 42 14.5 67t28 38.5t40.5 18t60 5.5q56 1 95 -40t39 -97z
M420 1229q3 30 -15 50t-47 19q-39 -1 -51 -13.5t-18 -53.5q-4 -31 19 -52t52 -16q31 5 45.5 19.5t14.5 46.5z" />
    <glyph glyph-name="ae" unicode="&#xe6;" horiz-adv-x="1077" 
d="M1026 295q0 -144 -80.5 -219.5t-216.5 -75.5q-49 0 -85 12t-51 26t-29 26t-25 12q-12 0 -26.5 -12t-31.5 -26t-60.5 -26t-105.5 -12q-116 0 -190 86t-74 233q0 137 71.5 212t184.5 75q66 0 120 -49q10 -7 11 -2v82q0 149 -90 149q-49 0 -69.5 -31t-20.5 -73
q0 -15 -33.5 -22t-68.5 -7q-24 0 -36.5 0.5t-29 4t-24 11.5t-7.5 21q0 78 25.5 137.5t67 92.5t88 49t94.5 16q52 0 90.5 -12t54 -26t31.5 -26t29 -12t30 12t33.5 26t50 26t76.5 12q132 0 214.5 -80.5t82.5 -212.5v-213q0 -13 -1 -17.5t-10 -8.5t-30 -4h-319
q-14 0 -21.5 -6.5t-7.5 -26.5v-111q0 -88 88 -88q42 0 64 26t22 68q0 4 4 6.5t15.5 4t31 2t51.5 0.5q74 0 93.5 -4t19.5 -25zM807 625v55q0 39 -21 65.5t-63 26.5q-41 0 -62.5 -27t-21.5 -65v-51q0 -31 82 -31q86 0 86 27zM434 276v97q0 8 -3.5 16.5t-13 19t-31 17
t-52.5 6.5q-37 0 -63.5 -30t-26.5 -83q0 -61 26 -91.5t64 -30.5q63 0 81.5 16.5t18.5 62.5z" />
    <glyph glyph-name="ccedilla" unicode="&#xe7;" horiz-adv-x="675" 
d="M647 295q0 -74 -24.5 -133t-62 -91.5t-75 -49.5t-69.5 -17q-4 0 -6 -4t-2.5 -11.5t-0.5 -14t0.5 -16t0.5 -13.5q0 -77 -56 -135t-133 -58q-8 0 -8 51q0 66 6 66q28 0 53 21.5t25 52.5q0 5 0.5 13.5t1 15.5t0 13.5t-2.5 10.5t-5 4q-14 0 -39.5 8t-60.5 30t-65.5 53.5
t-51.5 85t-21 118.5v395q0 133 83 214t214 81q135 0 217 -76t82 -221q0 -17 -17.5 -20.5t-101.5 -3.5q-70 0 -86 2t-16 14q0 38 -20.5 63t-57.5 25q-78 0 -78 -125v-303q0 -56 15.5 -89.5t62.5 -33.5q42 0 60 27.5t18 60.5q0 8 6 12t30.5 6.5t72.5 2.5q81 0 96.5 -3.5
t15.5 -27.5z" />
    <glyph glyph-name="egrave" unicode="&#xe8;" horiz-adv-x="696" 
d="M645 295q0 -144 -80.5 -219.5t-216.5 -75.5q-131 0 -214 80t-83 215v397q0 132 84 212.5t213 80.5q132 0 214.5 -80.5t82.5 -212.5v-213q0 -13 -1 -17.5t-10 -8.5t-30 -4h-311q-14 0 -21.5 -6.5t-7.5 -26.5t1 -56.5t1 -54.5q2 -46 21.5 -67t60.5 -21q42 0 62 25.5
t20 68.5q0 4 4 6.5t15.5 4t31 2t51.5 0.5q74 0 93.5 -4t19.5 -25zM426 625v55q0 39 -19.5 65.5t-60.5 26.5t-60.5 -27t-19.5 -65v-51q0 -31 78 -31q82 0 82 27zM526 1186q-21 -41 -30 -88q-7 -33 -50 -15q-56 27 -98.5 46t-90 40t-83.5 37q-43 32 -24 58q12 16 34 79
q4 11 13 14t22 -0.5t35 -13.5q95 -44 203 -88q84 -38 69 -69z" />
    <glyph glyph-name="eacute" unicode="&#xe9;" horiz-adv-x="696" 
d="M645 295q0 -144 -80.5 -219.5t-216.5 -75.5q-131 0 -214 80t-83 215v397q0 132 84 212.5t213 80.5q132 0 214.5 -80.5t82.5 -212.5v-213q0 -13 -1 -17.5t-10 -8.5t-30 -4h-311q-14 0 -21.5 -6.5t-7.5 -26.5t1 -56.5t1 -54.5q2 -46 21.5 -67t60.5 -21q42 0 62 25.5
t20 68.5q0 4 4 6.5t15.5 4t31 2t51.5 0.5q74 0 93.5 -4t19.5 -25zM426 625v55q0 39 -19.5 65.5t-60.5 26.5t-60.5 -27t-19.5 -65v-51q0 -31 78 -31q82 0 82 27zM543 1264q10 -11 3 -24.5t-14.5 -21t-15.5 -12.5q-36 -17 -83 -37.5t-90 -40t-99 -47.5q-43 -19 -47 17
q-7 37 -33 88q-7 15 12.5 33t59.5 36q108 44 200 91q32 14 48 14t22 -17q31 -71 37 -79z" />
    <glyph glyph-name="ecircumflex" unicode="&#xea;" horiz-adv-x="696" 
d="M645 295q0 -144 -80.5 -219.5t-216.5 -75.5q-131 0 -214 80t-83 215v397q0 132 84 212.5t213 80.5q132 0 214.5 -80.5t82.5 -212.5v-213q0 -13 -1 -17.5t-10 -8.5t-30 -4h-311q-14 0 -21.5 -6.5t-7.5 -26.5t1 -56.5t1 -54.5q2 -46 21.5 -67t60.5 -21q42 0 62 25.5
t20 68.5q0 4 4 6.5t15.5 4t31 2t51.5 0.5q74 0 93.5 -4t19.5 -25zM426 625v55q0 39 -19.5 65.5t-60.5 26.5t-60.5 -27t-19.5 -65v-51q0 -31 78 -31q82 0 82 27zM584 1171q0 -11 -18.5 -45t-20.5 -41q-2 -10 -7.5 -17t-17 -6.5t-24.5 13.5q-135 131 -150 131q-13 0 -139 -120
q-2 -2 -3.5 -3t-3 -3t-3.5 -3q-24 -18 -35 -12.5t-15 22.5q-2 6 -22 43.5t-19 49.5q-1 5 4 11t15 15t21 17t28.5 21t30.5 24q11 9 33.5 27.5t34 27.5t27.5 20t27 16t19 5q23 0 130 -93q11 -9 16 -14q13 -11 29 -23.5t25.5 -20t18.5 -15.5t13.5 -14.5t5.5 -12.5z" />
    <glyph glyph-name="edieresis" unicode="&#xeb;" horiz-adv-x="696" 
d="M645 295q0 -144 -80.5 -219.5t-216.5 -75.5q-131 0 -214 80t-83 215v397q0 132 84 212.5t213 80.5q132 0 214.5 -80.5t82.5 -212.5v-213q0 -13 -1 -17.5t-10 -8.5t-30 -4h-311q-14 0 -21.5 -6.5t-7.5 -26.5t1 -56.5t1 -54.5q2 -46 21.5 -67t60.5 -21q42 0 62 25.5
t20 68.5q0 4 4 6.5t15.5 4t31 2t51.5 0.5q74 0 93.5 -4t19.5 -25zM426 625v55q0 39 -19.5 65.5t-60.5 26.5t-60.5 -27t-19.5 -65v-51q0 -31 78 -31q82 0 82 27zM616 1200q0 -49 -22 -76.5t-80 -33.5q-53 -4 -77.5 28t-22.5 82q-2 49 25 85t77 30q33 -3 53.5 -12.5
t30.5 -26.5t13 -34t3 -42zM287 1200q0 -48 -22.5 -76t-78.5 -34q-53 -4 -77.5 28t-22.5 82q-2 49 25 85t77 30q61 -6 81 -35t18 -80z" />
    <glyph glyph-name="igrave" unicode="&#xec;" horiz-adv-x="362" 
d="M291 37q0 -27 -15.5 -32t-99.5 -5q-77 0 -90.5 4t-13.5 29v917q0 25 16 30t88 5q82 0 98.5 -5t16.5 -32v-911zM453 1198q-22 -45 -31 -88q-4 -16 -12.5 -20t-36.5 6q-56 27 -99 46.5t-90 39.5t-84 37q-42 32 -24 57q13 18 35 80q4 11 13 14t21.5 -0.5t34.5 -13.5
q95 -44 203 -88q39 -18 58 -36.5t12 -33.5z" />
    <glyph glyph-name="iacute" unicode="&#xed;" horiz-adv-x="362" 
d="M291 37q0 -27 -15.5 -32t-99.5 -5q-77 0 -90.5 4t-13.5 29v917q0 25 16 30t88 5q82 0 98.5 -5t16.5 -32v-911zM451 1276q12 -16 0 -32t-27 -25q-36 -17 -83 -37.5t-90 -40t-99 -47.5q-44 -19 -48 16q-8 40 -32 88q-7 15 12.5 33.5t58.5 36.5q123 51 201 90q34 14 48 14.5
t22 -16.5q32 -73 37 -80z" />
    <glyph glyph-name="icircumflex" unicode="&#xee;" horiz-adv-x="362" 
d="M291 37q0 -27 -15.5 -32t-99.5 -5q-77 0 -90.5 4t-13.5 29v917q0 25 16 30t88 5q82 0 98.5 -5t16.5 -32v-911zM547 1176q0 -11 -18.5 -45t-20.5 -41q-4 -17 -15 -23t-34 12q-135 131 -150 131q-13 0 -139 -120q-2 -2 -3.5 -3t-3 -3t-3.5 -3q-24 -18 -34.5 -12.5
t-14.5 23.5q-2 6 -22 43t-19 49q-1 5 3.5 11t15 15t21 17t28 21.5t30.5 23.5q11 9 33.5 27.5t34 27.5t27.5 20t27 16t19 5q9 0 22.5 -7.5t40 -28.5t37 -30t46.5 -40q13 -11 29 -23.5t25.5 -20t18.5 -15.5t13.5 -14.5t5.5 -12.5z" />
    <glyph glyph-name="idieresis" unicode="&#xef;" horiz-adv-x="362" 
d="M291 37q0 -27 -15.5 -32t-99.5 -5q-77 0 -90.5 4t-13.5 29v917q0 25 16 30t88 5q82 0 98.5 -5t16.5 -32v-911zM602 1200q0 -49 -22 -76.5t-80 -33.5q-53 -4 -78 28.5t-23 81.5q-2 49 25.5 85t77.5 30q33 -3 53.5 -12.5t30.5 -26.5t13 -34t3 -42zM272 1200
q0 -49 -22 -76.5t-78 -33.5q-53 -4 -77.5 28t-22.5 82q-2 49 25 85t77 30q61 -6 80.5 -35t17.5 -80z" />
    <glyph glyph-name="eth" unicode="&#xf0;" horiz-adv-x="706" 
d="M760 1114q4 -15 -3.5 -24t-35.5 -9q-76 0 -76 -10v-1055q0 -12 -12.5 -14t-53.5 -2h-28q-12 0 -25.5 -0.5t-22 -0.5h-17.5h-14t-10.5 1.5t-8.5 3t-5 5t-3 8t-1 10.5q0 35 -8 36q-3 0 -8 -4q-20 -20 -53.5 -39.5t-69.5 -19.5q-117 0 -185.5 74t-68.5 217v399
q0 144 72 219.5t182 75.5q21 0 57 -13t56 -32q20 -10 22 29v106q0 8 -65 8q-14 0 -32.5 9.5t-14.5 29.5q5 25 0 88q-1 18 13.5 24.5t49.5 6.5q49 0 49 6v170q0 12 19.5 14.5t74.5 2.5h11h11q56 0 72.5 -2.5t16.5 -14.5v-170q0 -6 10 -6q43 2 71 -7t28 -26q0 -71 6 -94z
M430 354v283q0 135 -82 135t-82 -135v-283q0 -66 17.5 -101.5t64.5 -35.5t64.5 36t17.5 101z" />
    <glyph glyph-name="ntilde" unicode="&#xf1;" horiz-adv-x="718" 
d="M657 20q0 -13 -18.5 -16.5t-83.5 -3.5q-75 0 -97 3t-22 13v627q0 28 -1.5 47t-7.5 40t-19 31.5t-33 10.5q-48 0 -71 -34t-23 -89v-626q0 -17 -16.5 -20t-100.5 -3q-69 0 -86 3.5t-17 16.5v947q0 12 14 14t79 2h34q50 1 62 -3.5t12 -27.5q0 -57 5 -57q3 0 9 10
q18 31 63.5 54.5t78.5 23.5q109 0 174 -71.5t65 -225.5v-666zM573 1208q1 -5 1.5 -8.5t-4.5 -9.5t-9.5 -10.5t-13 -12t-16 -13t-17.5 -14t-18 -14.5q-21 -18 -37 -26t-23.5 -9t-23.5 -1q-50 0 -74 24l-6 6q-21 21 -30.5 27t-25.5 6q-9 0 -15.5 -3t-11.5 -7.5t-20 -18.5
t-32 -28q-15 -12 -31 -8t-19 18q-3 10 -38 80q-13 20 77 82q61 41 88 41h11.5h12.5t11 -1.5t13 -3.5t11.5 -6.5t14.5 -11.5l20 -20t16.5 -16t11.5 -7.5t14 -3.5q3 0 5.5 0.5t5 1.5t5.5 3t5.5 3.5t7 5t7.5 6t8 8t9 9t11.5 10.5t12.5 12q19 17 31.5 11.5t16.5 -21.5
q3 -10 38 -80z" />
    <glyph glyph-name="ograve" unicode="&#xf2;" horiz-adv-x="698" 
d="M647 295q0 -144 -81.5 -219.5t-217.5 -75.5q-130 0 -213.5 80t-83.5 215v397q0 132 84 212.5t213 80.5q133 0 216 -80t83 -213v-397zM430 354v283q0 135 -82 135t-82 -135v-283q0 -65 18 -101t64 -36q48 0 65 35.5t17 101.5zM532 1182q-21 -41 -30 -88q-4 -16 -12.5 -20
t-36.5 5q-56 27 -99 46.5t-90 39.5t-84 37q-43 32 -24 58q12 16 34 79q4 11 13 14t22 -0.5t35 -13.5q95 -44 203 -88q84 -38 69 -69z" />
    <glyph glyph-name="oacute" unicode="&#xf3;" horiz-adv-x="698" 
d="M647 295q0 -144 -81.5 -219.5t-217.5 -75.5q-130 0 -213.5 80t-83.5 215v397q0 132 84 212.5t213 80.5q133 0 216 -80t83 -213v-397zM430 354v283q0 135 -82 135t-82 -135v-283q0 -65 18 -101t64 -36q48 0 65 35.5t17 101.5zM537 1260q10 -11 3 -24.5t-14.5 -21
t-15.5 -12.5q-36 -17 -83 -37.5t-90 -40t-99 -47.5q-44 -19 -48 17q-8 40 -32 88q-7 15 12.5 33t58.5 36q124 51 201 90q34 14 48 14.5t22 -16.5q31 -71 37 -79z" />
    <glyph glyph-name="ocircumflex" unicode="&#xf4;" horiz-adv-x="698" 
d="M647 295q0 -144 -81.5 -219.5t-217.5 -75.5q-130 0 -213.5 80t-83.5 215v397q0 132 84 212.5t213 80.5q133 0 216 -80t83 -213v-397zM430 354v283q0 135 -82 135t-82 -135v-283q0 -65 18 -101t64 -36q48 0 65 35.5t17 101.5zM590 1171q0 -11 -18.5 -45t-20.5 -41
q-2 -10 -7.5 -17t-17 -6.5t-24.5 13.5q-135 131 -150 131q-13 0 -139 -120q-2 -2 -3.5 -3t-3 -3t-3.5 -3q-24 -18 -34.5 -12.5t-14.5 22.5q-2 6 -22 43.5t-19 49.5q-1 5 3.5 11t15 15t21 17t28 21.5t30.5 23.5q11 9 33.5 27.5t34 27.5t27.5 20t27 16t19 5q23 0 130 -93
q11 -9 16 -14q13 -11 29 -23.5t25.5 -20t18.5 -15.5t13.5 -14.5t5.5 -12.5z" />
    <glyph glyph-name="otilde" unicode="&#xf5;" horiz-adv-x="698" 
d="M647 295q0 -144 -81.5 -219.5t-217.5 -75.5q-130 0 -213.5 80t-83.5 215v397q0 132 84 212.5t213 80.5q133 0 216 -80t83 -213v-397zM430 354v283q0 135 -82 135t-82 -135v-283q0 -65 18 -101t64 -36q48 0 65 35.5t17 101.5zM578 1208q1 -8 0.5 -12t-11 -14.5t-19 -17
t-23.5 -18.5l-25 -20q-21 -18 -37 -26t-23.5 -9t-23.5 -1q-50 0 -74 24q-3 3 -9 9.5t-8 8.5t-6.5 6t-6.5 5t-5.5 3.5t-5.5 3t-5.5 2t-7 1.5h-7.5q-9 0 -15.5 -3t-11.5 -7.5t-20.5 -18.5t-32.5 -28q-15 -11 -30.5 -7.5t-18.5 17.5q-1 5 -39 80q-13 20 77 82q61 41 89 41h10.5
h10t9 -0.5t10.5 -2t10 -4t11.5 -6.5t11.5 -10l20 -20t16.5 -16t11.5 -7.5t14 -3.5q16 0 67 49q2 2 3.5 3t3.5 3l4 4q19 17 31 12t16 -22q3 -9 10 -23.5t17 -33t12 -23.5z" />
    <glyph glyph-name="odieresis" unicode="&#xf6;" horiz-adv-x="698" 
d="M647 295q0 -144 -81.5 -219.5t-217.5 -75.5q-130 0 -213.5 80t-83.5 215v397q0 132 84 212.5t213 80.5q133 0 216 -80t83 -213v-397zM430 354v283q0 135 -82 135t-82 -135v-283q0 -65 18 -101t64 -36q48 0 65 35.5t17 101.5zM621 1200q0 -49 -22.5 -76.5t-80.5 -33.5
q-53 -4 -77.5 28t-22.5 82q-2 49 25 85t77 30q62 -5 81.5 -34t19.5 -81zM291 1200q0 -48 -22.5 -76t-78.5 -34q-53 -4 -77.5 28t-22.5 82q-2 49 25.5 85t77.5 30q61 -6 80.5 -35t17.5 -80z" />
    <glyph glyph-name="divide" unicode="&#xf7;" 
d="M791 735q0 61 -4 73.5t-27 12.5h-88q-17 0 -21 5.5t-4 21.5v299q0 27 -15.5 44t-35.5 17h-90q-19 0 -19 17v176q0 22 -15.5 27.5t-65.5 5.5q-45 0 -63.5 -6t-18.5 -25v-180q0 -15 -15 -15h-86q-16 0 -37.5 -19t-21.5 -38v-297q0 -25 -8 -30q-6 -3 -17 -3h-86
q-23 0 -28 -13.5t-5 -72.5q0 -51 5.5 -64.5t25.5 -13.5h86q19 0 23 -4.5t4 -21.5v-350q0 -21 15 -38.5t38 -17.5h94q8 0 10.5 -2.5t2.5 -11.5v-184q0 -21 12 -24t70 -3t69.5 4t11.5 27v176q0 18 15 18h100q19 0 32 16t13 48v342q0 17 4 21.5t23 4.5h90q19 0 23 11t4 55v12z
M481 416q0 -20 -8.5 -27.5t-26.5 -7.5h-81q-18 0 -26.5 7.5t-8.5 27.5v604q0 31 30 31h91q30 0 30 -31v-604z" />
    <glyph glyph-name="oslash" unicode="&#xf8;" horiz-adv-x="698" 
d="M659 1085q-6 -17 -18 -47t-20.5 -52t-17 -46t-12 -38.5t-1.5 -18.5q1 -2 8 -14.5t10 -18t9.5 -19t9.5 -23t8 -24.5t7 -28t3.5 -30t1.5 -34q-3 -76 -1.5 -197.5t1.5 -199.5q0 -144 -81.5 -219.5t-217.5 -75.5q-13 0 -44 4t-42 2q-3 -1 -8 -11t-12 -28t-13.5 -35t-14.5 -40
t-13 -35q-11 -33 -121 -33q-18 0 -31 1t-27 3.5t-20 9.5t-2 17q95 261 92 268q-13 24 -27 75.5t-14 96.5v397q0 132 84 212.5t213 80.5q12 0 27.5 -2.5t21 -2.5t15.5 3q6 4 13.5 22.5t18 49.5t15.5 43q10 28 102 28q45 0 75 -10t23 -31zM430 354v283q0 135 -82 135t-82 -135
v-283q0 -65 18 -101t64 -36q48 0 65 35.5t17 101.5z" />
    <glyph glyph-name="ugrave" unicode="&#xf9;" horiz-adv-x="708" 
d="M647 16q0 -17 -59 -16h-10h-10h-11q-86 0 -98 8q-15 15 -15 49q0 38 -4 37q-4 -2 -8 -10q-21 -36 -57.5 -61t-79.5 -25q-110 0 -177 72t-67 227v666q0 13 20 16.5t81 3.5q72 0 93 -4t21 -16v-611q0 -32 1.5 -49.5t7 -42.5t20 -37t37.5 -12q100 0 100 135v610q0 10 2 14
t14 7t31.5 3.5t61.5 0.5q71 0 88.5 -3t17.5 -15v-947zM526 1198q-21 -41 -30 -88q-3 -16 -12.5 -20t-37.5 6q-56 27 -98.5 46t-90 40t-83.5 37q-42 32 -24 57q12 15 34 80q4 11 13 14t22 -0.5t35 -13.5q95 -44 203 -88q39 -17 57.5 -36t11.5 -34z" />
    <glyph glyph-name="uacute" unicode="&#xfa;" horiz-adv-x="708" 
d="M647 16q0 -17 -59 -16h-10h-10h-11q-86 0 -98 8q-15 15 -15 49q0 38 -4 37q-4 -2 -8 -10q-21 -36 -57.5 -61t-79.5 -25q-110 0 -177 72t-67 227v666q0 13 20 16.5t81 3.5q72 0 93 -4t21 -16v-611q0 -32 1.5 -49.5t7 -42.5t20 -37t37.5 -12q100 0 100 135v610q0 10 2 14
t14 7t31.5 3.5t61.5 0.5q71 0 88.5 -3t17.5 -15v-947zM563 1276q12 -16 0 -32t-26 -25q-36 -17 -83 -37t-90.5 -40t-99.5 -48q-43 -19 -47 16q-7 37 -33 88q-7 15 13 33.5t59 36.5q123 51 201 90q34 14 47.5 14.5t21.5 -16.5q32 -73 37 -80z" />
    <glyph glyph-name="ucircumflex" unicode="&#xfb;" horiz-adv-x="708" 
d="M647 16q0 -17 -59 -16h-10h-10h-11q-86 0 -98 8q-15 15 -15 49q0 38 -4 37q-4 -2 -8 -10q-21 -36 -57.5 -61t-79.5 -25q-110 0 -177 72t-67 227v666q0 13 20 16.5t81 3.5q72 0 93 -4t21 -16v-611q0 -32 1.5 -49.5t7 -42.5t20 -37t37.5 -12q100 0 100 135v610q0 10 2 14
t14 7t31.5 3.5t61.5 0.5q71 0 88.5 -3t17.5 -15v-947zM592 1176q0 -11 -18.5 -45t-20.5 -41q-4 -17 -15 -23t-34 12q-135 131 -150 131q-13 0 -139 -120q-2 -2 -3.5 -3t-3 -3t-3.5 -3q-24 -18 -34.5 -12.5t-14.5 23.5q-2 6 -22 43t-19 49q-1 5 3.5 11t15 15t21 17t28 21.5
t30.5 23.5q11 9 33.5 27.5t34 27.5t27.5 20t27 16t19 5q9 0 22.5 -7.5t40 -28.5t37 -30t46.5 -40q13 -11 29 -23.5t25.5 -20t18.5 -15.5t13.5 -14.5t5.5 -12.5z" />
    <glyph glyph-name="udieresis" unicode="&#xfc;" horiz-adv-x="708" 
d="M647 16q0 -17 -59 -16h-10h-10h-11q-86 0 -98 8q-15 15 -15 49q0 38 -4 37q-4 -2 -8 -10q-21 -36 -57.5 -61t-79.5 -25q-110 0 -177 72t-67 227v666q0 13 20 16.5t81 3.5q72 0 93 -4t21 -16v-611q0 -32 1.5 -49.5t7 -42.5t20 -37t37.5 -12q100 0 100 135v610q0 10 2 14
t14 7t31.5 3.5t61.5 0.5q71 0 88.5 -3t17.5 -15v-947zM625 1200q0 -49 -22.5 -76.5t-80.5 -33.5q-53 -4 -77.5 28t-22.5 82q-2 49 25 85t77 30q62 -5 81.5 -34t19.5 -81zM295 1200q0 -49 -22 -76.5t-78 -33.5q-53 -4 -78 28.5t-23 81.5q-2 49 25.5 85t77.5 30
q61 -6 80.5 -35t17.5 -80z" />
    <glyph glyph-name="yacute" unicode="&#xfd;" horiz-adv-x="673" 
d="M653 954q-202 -827 -329 -1337q-4 -17 -28 -22t-71 -5q-20 0 -34 1t-30 4t-23 10t-5 18q32 151 80 383q6 27 6 68q0 23 -4 63q-167 703 -195 824q-1 7 7 11.5t25 7t34 3t41 0.5q51 0 78.5 -5.5t30.5 -23.5q17 -107 45 -269.5t43 -254.5q0 -20 12 -20q4 0 7 2.5t4 5t2 8
t1 6.5q68 376 92 526q3 16 30.5 20.5t82.5 4.5q19 0 36 -1.5t32.5 -4.5t23.5 -9t6 -14zM535 1278q12 -16 0 -32t-27 -25q-36 -17 -83 -37.5t-90 -40t-99 -47.5q-44 -19 -48 16q-8 40 -32 88q-7 15 12.5 33.5t58.5 36.5q123 51 201 90q34 14 48 14.5t22 -16.5q32 -73 37 -80z
" />
    <glyph glyph-name="thorn" unicode="&#xfe;" horiz-adv-x="708" 
d="M657 291q0 -144 -70 -217.5t-188 -73.5q-19 0 -54.5 12.5t-55.5 30.5q-21 12 -23 -29v-407q0 -12 -8 -14q-9 -3 -94 -3q-68 0 -85.5 3t-17.5 16v1808q0 13 20.5 16t76.5 3q59 0 83.5 -3.5t24.5 -15.5v-448q0 -38 14 -35q4 1 9 6q20 19 55.5 32t56.5 13q112 0 184 -76
t72 -219v-399zM440 354v283q0 135 -82 135t-82 -135v-283q0 -137 82 -137q48 0 65 35t17 102z" />
    <glyph glyph-name="ydieresis" unicode="&#xff;" horiz-adv-x="673" 
d="M653 954q-202 -827 -329 -1337q-4 -17 -28 -22t-71 -5q-20 0 -34 1t-30 4t-23 10t-5 18q32 151 80 383q6 27 6 68q0 23 -4 63q-167 703 -195 824q-1 7 7 11.5t25 7t34 3t41 0.5q51 0 78.5 -5.5t30.5 -23.5q17 -107 45 -269.5t43 -254.5q0 -20 12 -20q4 0 7 2.5t4 5t2 8
t1 6.5q68 376 92 526q3 16 30.5 20.5t82.5 4.5q19 0 36 -1.5t32.5 -4.5t23.5 -9t6 -14zM612 1200q0 -49 -22 -76.5t-80 -33.5q-53 -4 -77.5 28t-22.5 82q-2 49 25 85t77 30q33 -3 53.5 -12.5t30.5 -26.5t13 -34t3 -42zM283 1200q0 -48 -22.5 -76t-78.5 -34q-53 -4 -77.5 28
t-22.5 82q-2 49 25 85t77 30q61 -6 81 -35t18 -80z" />
    <glyph glyph-name="dotlessi" unicode="&#x131;" horiz-adv-x="362" 
d="M291 37q0 -27 -15.5 -32t-99.5 -5q-77 0 -90.5 4t-13.5 29v917q0 25 16 30t88 5q82 0 98.5 -5t16.5 -32v-911z" />
    <glyph glyph-name="Lslash" unicode="&#x141;" horiz-adv-x="671" 
d="M641 104q0 -73 -4 -88.5t-23 -15.5h-393q-57 0 -67 12q-11 13 -11 72v485q0 7 -25 -15q-21 -18 -34 -28q-17 -13 -33.5 0.5t-50.5 63.5q-33 48 -37.5 66t10.5 28q144 117 158 132q12 14 12 26v559q0 22 17 27.5t86 5.5q79 0 97.5 -5.5t18.5 -29.5v-402q0 -11 25 7.5
t127 103.5q12 9 21 11t26 -9t39 -39q38 -49 39 -77.5t-27 -47.5q-69 -57 -155 -128q-67 -54 -81 -67t-14 -20v-450q0 -63 13 -72q13 -8 55 -8h182q20 0 24.5 -15.5t4.5 -81.5z" />
    <glyph glyph-name="lslash" unicode="&#x142;" horiz-adv-x="526" 
d="M559 915q-32 -28 -68.5 -59.5t-54.5 -47t-35 -31t-23.5 -22.5t-6.5 -10v-712q0 -23 -16 -28t-99 -5q-74 0 -88 4t-14 25v524q0 16 -40 -20l-22 -21q-8 -8 -14.5 -9t-15 8t-15.5 18.5t-22 33.5q-7 11 -11 17q-18 28 -25.5 40t-12 24t-2.5 18t10 12q170 142 170 155v570
q0 23 16 28t86 5q78 0 96.5 -5.5t18.5 -29.5v-377q0 -12 22 3q19 13 66 52q19 10 27 3.5t36 -52.5q3 -4 4 -6q42 -68 44 -82q2 -13 -11 -23z" />
    <glyph glyph-name="OE" unicode="&#x152;" horiz-adv-x="995" 
d="M954 102q0 -71 -3.5 -86.5t-20.5 -15.5h-273q-34 0 -60.5 6.5t-38.5 14t-22.5 14t-17.5 6.5q-8 0 -23.5 -10.5t-47.5 -20.5t-82 -10q-138 0 -217.5 83t-79.5 212v846q0 132 84 212.5t213 80.5q39 0 67.5 -6.5t41.5 -14t24.5 -14t19.5 -6.5q7 0 17.5 6.5t23 14t39 14
t61.5 6.5h269q18 0 21 -16t3 -81q0 -85 -6 -96q-6 -8 -20 -8h-205q-39 0 -47 -10q-8 -11 -9 -15t-1 -24v-271q0 -3 -0.5 -11t0 -12.5t1.5 -10.5t3.5 -11t7.5 -8q11 -8 45 -8h98q18 0 22.5 -16.5t4.5 -85.5q0 -68 -4 -83.5t-23 -15.5h-92q-39 0 -51 -6q-5 -3 -8.5 -7.5
t-4.5 -11.5l-1.5 -10.5t0 -14.5t0.5 -15v-305q0 -66 10 -72q13 -8 61 -8h195q18 0 22 -15t4 -84zM442 340v760q0 50 -18.5 86.5t-58.5 36.5q-42 0 -60 -36t-18 -87v-760q0 -22 0.5 -35.5t5 -32t12 -29t23 -18.5t37.5 -8q26 0 42.5 10.5t23.5 30.5t9 38t2 44z" />
    <glyph glyph-name="oe" unicode="&#x153;" horiz-adv-x="1075" 
d="M1024 295q0 -144 -80.5 -219.5t-216.5 -75.5q-43 0 -78 11t-53 24t-33 24t-22 11q-5 0 -20 -11t-33.5 -24t-56 -24t-83.5 -11q-130 0 -213.5 80t-83.5 215v397q0 132 84 212.5t213 80.5q45 0 82.5 -11.5t56 -25.5t33 -25.5t19.5 -11.5t28 18.5t65.5 37t94.5 18.5
q132 0 214.5 -80.5t82.5 -212.5v-213q0 -13 -1 -17.5t-10 -8.5t-30 -4h-311q-14 0 -21.5 -6.5t-7.5 -26.5t1 -56.5t1 -54.5q2 -46 21.5 -67t60.5 -21q42 0 62 25.5t20 68.5q0 4 4 6.5t15.5 4t31 2t51.5 0.5q74 0 93.5 -4t19.5 -25zM805 625v55q0 39 -19.5 65.5t-60.5 26.5
t-60.5 -27t-19.5 -65v-51q0 -31 78 -31q82 0 82 27zM430 354v283q0 135 -82 135t-82 -135v-283q0 -65 18 -101t64 -36q48 0 65 35.5t17 101.5z" />
    <glyph glyph-name="Scaron" unicode="&#x160;" horiz-adv-x="696" 
d="M645 354q0 -125 -33 -184q-55 -99 -106.5 -134.5t-157.5 -35.5q-131 0 -214 76t-83 211v114q0 13 19 17t82 4q71 0 95.5 -2.5t24.5 -13.5v-87q0 -61 16.5 -90.5t59.5 -29.5q65 0 74 75q4 70 4 95q0 48 -40 113.5t-97 134.5t-113.5 144t-96.5 165.5t-40 175.5
q0 43 15.5 103t35.5 95q29 50 88.5 92t151.5 42q128 0 209.5 -82t81.5 -197v-100q0 -9 -17 -11t-69 -2h-13q-66 0 -92.5 2.5t-26.5 12.5v94q0 41 -22.5 66.5t-50.5 25.5q-27 0 -47 -19.5t-23 -45.5q-6 -46 -6 -82q0 -49 21.5 -99.5t56 -95.5t76.5 -92.5t83.5 -99t76 -104.5
t56 -118t21.5 -133zM584 1688q-1 -9 -10.5 -19t-38.5 -32.5t-43 -34.5q-100 -87 -126 -100q-13 -7 -20 -7q-8 0 -19 5t-27 16t-27.5 20t-34 27.5t-33.5 27.5q-13 11 -30.5 24t-28.5 21t-21 17t-15 15t-4 11q-1 12 19 49.5t22 43.5q4 17 15 22.5t35 -12.5q124 -118 143 -127
q4 -2 6 -2q15 0 150 131q13 13 24.5 13.5t17 -6.5t7.5 -17q2 -7 20.5 -41t18.5 -45z" />
    <glyph glyph-name="scaron" unicode="&#x161;" horiz-adv-x="651" 
d="M610 260q0 -105 -84 -182.5t-200 -77.5q-120 0 -202.5 79t-82.5 208q0 10 15.5 12t78.5 2h28q48 0 63.5 -1.5t15.5 -8.5q0 -103 80 -103q79 0 79 88q0 37 -19.5 64.5t-50.5 45.5t-69 35t-76 40t-69 54t-50.5 83t-19.5 121q0 103 76 183.5t199 80.5q119 0 196.5 -85.5
t77.5 -203.5q0 -7 -13 -8.5t-57 -1.5h-28q-109 0 -109 14q0 50 -20 77.5t-52 27.5q-34 0 -52.5 -22.5t-18.5 -65.5q0 -28 20 -51t52 -41.5t71 -38.5t78 -48t71 -63t52 -90t20 -123zM561 1278q-1 -9 -10.5 -19t-38.5 -32.5t-43 -34.5q-7 -6 -19.5 -17t-20 -17.5t-18.5 -16
t-18.5 -15.5t-17 -13t-16 -11.5t-13.5 -8.5t-12.5 -6t-9.5 -2q-8 0 -19 5t-27 16.5t-28 20.5t-34.5 27.5t-33.5 27.5q-13 10 -30.5 23.5t-28 21.5t-21 17t-15 15t-3.5 11q-1 12 19 49t22 43q4 17 14.5 22.5t34.5 -12.5q136 -129 150 -129t149 131q13 13 24.5 13.5t17 -6.5
t7.5 -17q2 -7 20.5 -41t18.5 -45z" />
    <glyph glyph-name="Ydieresis" unicode="&#x178;" horiz-adv-x="651" 
d="M621 1403q-83 -396 -148 -670q-4 -19 -8 -41t-8 -46t-6 -34q-13 -58 -13 -108v-488q0 -16 -112 -16q-109 0 -109 23q0 81 1 231.5t1 243.5q0 66 -6 100q-2 15 -13.5 60.5t-15.5 62.5q-111 484 -153 682q-2 10 6.5 16t25 8.5t30 3.5t30.5 1q59 0 90.5 -6t34.5 -27
q14 -99 37 -267.5t32 -236.5q0 -5 4 -11.5t9 -6.5q10 0 10 20q15 103 36 270t30 232q5 33 114 33q25 0 40.5 -1t32 -3.5t23.5 -8.5t5 -16zM596 1606q0 -49 -22 -77t-80 -34q-53 -4 -78 28.5t-23 82.5q-2 49 25.5 84.5t77.5 29.5q62 -5 81 -33.5t19 -80.5zM266 1606
q0 -49 -22 -77t-78 -34q-53 -4 -77.5 28.5t-22.5 82.5q-2 49 25 84.5t77 29.5q61 -6 80.5 -34.5t17.5 -79.5z" />
    <glyph glyph-name="Zcaron" unicode="&#x17d;" horiz-adv-x="614" 
d="M569 1376q0 -148 -6 -166q-56 -179 -143.5 -458.5t-149.5 -475.5q-7 -23 0 -57q5 -11 10.5 -13.5t22.5 -2.5h238q15 0 18.5 -26t3.5 -77v-6q0 -28 -0.5 -38t-2 -27t-6.5 -23t-13 -6h-463q-27 0 -27 50v3q0 24 -0.5 64.5t-0.5 62t1 47t3 41t5 23.5q160 484 283 878
q6 18 2.5 39t-16.5 31q-10 4 -43 4h-197q-25 0 -25 90q0 25 0.5 37.5t2.5 30t7.5 25.5t14.5 8h442q27 0 33 -9t6 -49zM575 1683q-1 -9 -10.5 -19t-38.5 -32.5t-43 -34.5q-5 -4 -15 -13q-107 -93 -130 -93q-8 0 -19 5t-27 16t-27.5 20t-34 27.5t-33.5 27.5q-13 11 -30.5 24
t-28.5 21t-21 17t-15 15t-4 11q-1 12 19 49t22 43q4 18 14.5 23.5t34.5 -12.5q136 -129 150 -129t149 131q23 18 34.5 12t15.5 -23q2 -7 20 -41t18 -45z" />
    <glyph glyph-name="zcaron" unicode="&#x17e;" horiz-adv-x="606" 
d="M575 84v-16v-14.5v-12.5t-1 -12t-2 -10t-3.5 -8.5l-5.5 -5.5t-7.5 -4t-10.5 -1h-467q-24 0 -30.5 26t-6.5 87q0 116 4 123q105 186 277 487q9 17 4 41t-19 35q-10 4 -43 4h-174q-15 0 -22.5 12t-9 27t-1.5 41q0 100 27 100h442q30 0 36.5 -17t6.5 -79q0 -107 -10 -125
q-57 -103 -149.5 -268.5t-137.5 -247.5q-6 -11 -1.5 -32t12.5 -26q10 -6 61 -6h201q30 0 30 -98zM561 1278q-1 -9 -10.5 -19t-38.5 -32.5t-43 -34.5q-7 -6 -19.5 -17t-20 -17.5t-18.5 -16t-18.5 -15.5t-17 -13t-16 -11.5t-13.5 -8.5t-12.5 -6t-9.5 -2q-8 0 -19 5t-27 16.5
t-28 20.5t-34.5 27.5t-33.5 27.5q-13 10 -30.5 23.5t-28 21.5t-21 17t-15 15t-3.5 11q-1 12 19 49t22 43q4 17 14.5 22.5t34.5 -12.5q136 -129 150 -129t149 131q13 13 24.5 13.5t17 -6.5t7.5 -17q2 -7 20.5 -41t18.5 -45z" />
    <glyph glyph-name="florin" unicode="&#x192;" horiz-adv-x="481" 
d="M461 856q0 -48 -3.5 -67t-6.5 -20t-17 -1q-80 0 -97.5 -5t-17.5 -30v-751q0 -107 -21.5 -182.5t-88.5 -131.5q-96 -78 -223 -78q-13 0 -16 17t-3 79v11q0 46 2.5 69t6.5 29t12 6q26 0 67 33q14 11 23.5 27.5t14 30.5t7 37t3 34t0 34t-0.5 26v710q0 25 -9 31t-48 6h-1
q-17 0 -20.5 12t-3.5 76q0 67 3.5 86t17.5 19q21 0 30.5 0.5t17.5 4.5t11 13q2 20 2 115t23.5 159t87.5 115q81 64 225 64q12 0 14.5 -14t2.5 -64v-29q0 -47 -2 -69t-6 -28.5t-13 -6.5q-49 0 -88 -52q-14 -17 -20 -40t-6.5 -35t-0.5 -45q0 -47 5 -70q1 -7 8.5 -10.5
t24.5 -5.5t28 -2h37h14q17 0 21 -19t4 -88z" />
    <glyph glyph-name="circumflex" unicode="&#x2c6;" horiz-adv-x="698" 
d="M586 1171q0 -11 -18.5 -45t-20.5 -41q-2 -10 -7.5 -17t-17 -6.5t-24.5 13.5q-135 131 -150 131q-13 0 -139 -120q-2 -2 -3.5 -3t-3 -3t-3.5 -3q-24 -18 -34.5 -12.5t-14.5 22.5q-2 6 -22 43.5t-19 49.5q-1 5 3.5 11t15 15t21 17t28 21.5t30.5 23.5q11 9 33.5 27.5
t34 27.5t27.5 20t27 16t19 5q23 0 130 -93q11 -9 16 -14q13 -11 29 -23.5t25.5 -20t18.5 -15.5t13.5 -14.5t5.5 -12.5z" />
    <glyph glyph-name="caron" unicode="&#x2c7;" horiz-adv-x="698" 
d="M586 1241q-1 -9 -10.5 -19t-38.5 -32.5t-43 -34.5q-104 -90 -132 -102q-8 -4 -14 -4q-8 0 -19 5t-27 16t-27.5 20t-34 27.5t-33.5 27.5q-13 10 -30.5 23.5t-28 21.5t-21 17t-15 15t-3.5 11q-1 12 19 49t22 43q4 17 14.5 22.5t34.5 -12.5q124 -118 143 -127q4 -2 6 -2
q15 0 150 131q13 13 24.5 13.5t17 -6.5t7.5 -17q2 -7 20.5 -41t18.5 -45z" />
    <glyph glyph-name="breve" unicode="&#x2d8;" horiz-adv-x="698" 
d="M586 1241q-10 -20 -26.5 -45.5t-47.5 -62t-74.5 -60.5t-89.5 -24q-117 0 -235 177q-3 5 -4 7q-13 19 45 96q4 5 17 -5.5t32.5 -30t42 -39t50.5 -34t52 -14.5q25 0 53 15.5t49 36t39.5 40.5t31 30.5t16.5 4.5q58 -77 49 -92z" />
    <glyph glyph-name="dotaccent" unicode="&#x2d9;" horiz-adv-x="698" 
d="M467 1260q2 -38 1.5 -66.5t-29 -48t-91.5 -27.5q-55 -6 -93 41.5t-32 106.5q3 28 8.5 48t18.5 39t37.5 28t60.5 8q50 -3 83 -39.5t36 -89.5z" />
    <glyph glyph-name="ring" unicode="&#x2da;" horiz-adv-x="698" 
d="M481 1223q0 -68 -30.5 -100t-98.5 -40q-62 -8 -108 38.5t-39 109.5q5 42 14.5 67t28 38.5t40.5 18t60 5.5q56 1 94.5 -39.5t38.5 -97.5zM410 1221q3 30 -15 50t-47 19q-39 -1 -51 -13.5t-18 -53.5q-4 -31 19 -52t52 -16q31 5 45.5 19.5t14.5 46.5z" />
    <glyph glyph-name="ogonek" unicode="&#x2db;" horiz-adv-x="698" 
d="M492 -197q0 -51 -9 -51q-77 0 -132.5 58t-55.5 135v139q0 14 48 14h7h6h18.5t15.5 -1.5t13.5 -5t4.5 -9.5v-139q0 -31 24.5 -52.5t52.5 -21.5q7 0 7 -66z" />
    <glyph glyph-name="tilde" unicode="&#x2dc;" horiz-adv-x="698" 
d="M580 1221q1 -8 0.5 -12t-11 -14.5t-19 -17t-23.5 -18.5l-25 -20q-31 -25 -46.5 -31t-37.5 -6q-50 0 -74 24q-3 3 -9 9.5t-8 8.5t-6.5 6t-6.5 5t-5.5 3.5t-5.5 3t-5.5 2t-7 1.5h-7.5q-9 0 -15.5 -3t-11.5 -7.5t-20.5 -18.5t-32.5 -28q-15 -11 -30.5 -7.5t-18.5 17.5
q-1 5 -39 80q-8 12 13.5 32t64.5 50q61 41 88 41h10.5h10t9 -0.5t10.5 -2t10 -4t11.5 -6.5t11.5 -10l20 -20t16.5 -16t11.5 -7.5t14 -3.5q3 0 6 0.5t6 2l6 3t7.5 5.5t7.5 6.5t9 8t10 9.5l12 12t14 13q19 17 31 11.5t16 -22.5q3 -9 10 -23.5t16.5 -32.5t12.5 -23z" />
    <glyph glyph-name="hungarumlaut" unicode="&#x2dd;" horiz-adv-x="698" 
d="M690 1331q13 -8 10 -22t-8.5 -23.5t-11.5 -15.5q-30 -25 -70.5 -57.5t-77 -63t-83.5 -72.5q-37 -30 -50 4q-10 23 -53 78q-12 12 2.5 34.5t48.5 47.5q110 89 170 139q21 16 32 22.5t20 6.5t16 -10q6 -7 26.5 -34t28.5 -34zM342 1331q13 -8 10 -22t-8.5 -23.5t-11.5 -15.5
q-17 -15 -93.5 -76.5t-138.5 -116.5q-36 -29 -49 4q-10 23 -53 78q-12 12 2.5 34.5t48.5 47.5q110 89 170 139q21 16 32 22.5t20 6.5t16 -10q6 -7 26.5 -34t28.5 -34z" />
    <glyph glyph-name="endash" unicode="&#x2013;" horiz-adv-x="1052" 
d="M1014 469q3 -13 -8.5 -23t-40.5 -10q-74 0 -439.5 1t-419.5 1q-17 0 -43 9.5t-22 29.5q5 25 0 88q-1 12 12.5 19t32 9.5t43.5 2.5h774q43 2 74 -7t31 -26q0 -71 6 -94z" />
    <glyph glyph-name="emdash" unicode="&#x2014;" horiz-adv-x="1642" 
d="M1602 469q3 -13 -9 -22t-41 -9h-1446q-17 0 -43 9.5t-22 29.5q5 25 0 88q-1 12 12.5 19t32 9.5t43.5 2.5q7 0 230 -0.5t454.5 -0.5h443t234.5 1q43 2 73.5 -7t30.5 -26q0 -67 7 -94z" />
    <glyph glyph-name="quoteleft" unicode="&#x2018;" horiz-adv-x="323" 
d="M272 1130q0 -59 -26 -96.5t-78 -36.5q-54 0 -85.5 31t-31.5 80q0 80 23 141q13 32 25.5 58.5t33 61t44.5 53t48 14.5q12 -2 15.5 -16t-1 -35.5t-10.5 -42t-14 -43.5t-10 -33q-4 -17 1 -26t19 -17.5t17 -10.5q30 -24 30 -82z" />
    <glyph glyph-name="quoteright" unicode="&#x2019;" horiz-adv-x="323" 
d="M272 1325q0 -83 -22 -141q-18 -45 -36 -81.5t-51.5 -73.5t-64.5 -32q-12 2 -15.5 16t1.5 35.5t11 42t14 43.5t10 33q4 17 -1 26t-19 17.5t-17 10.5q-31 25 -31 82q0 59 26.5 96.5t78.5 36.5q54 -1 85 -32t31 -79z" />
    <glyph glyph-name="quotesinglbase" unicode="&#x201a;" horiz-adv-x="323" 
d="M272 131q0 -83 -22 -139q-13 -32 -25.5 -59t-33.5 -61.5t-45 -52.5t-48 -14q-12 2 -15.5 15.5t1.5 34.5t11 42t14 44.5t10 33.5q4 17 -1 25.5t-19 16t-17 10.5q-31 25 -31 82q0 58 26.5 96.5t78.5 38.5q54 -1 85 -32.5t31 -80.5z" />
    <glyph glyph-name="quotedblleft" unicode="&#x201c;" horiz-adv-x="585" 
d="M535 1130q0 -59 -26.5 -96.5t-78.5 -34.5q-54 0 -85.5 30t-33.5 79q0 80 23 141q12 31 25.5 58.5t34 61t44.5 52.5t47 15q12 -2 15.5 -16t-1 -35.5t-10.5 -42t-13 -43.5t-9 -33q-5 -12 0 -22t8.5 -13.5t13 -9.5t13.5 -9q33 -26 33 -82zM272 1130q0 -59 -26 -96.5
t-78 -36.5q-54 0 -85.5 31t-31.5 80q0 80 23 141q13 32 25.5 58.5t33 61t44.5 53t48 14.5q12 -2 15.5 -16t-1 -35.5t-10.5 -42t-14 -43.5t-10 -33q-4 -17 1 -26t19 -17.5t17 -10.5q30 -24 30 -82z" />
    <glyph glyph-name="quotedblright" unicode="&#x201d;" horiz-adv-x="585" 
d="M535 1323q3 -73 -23 -137q-12 -31 -25.5 -59t-34 -62t-45 -53.5t-47.5 -16.5q-12 2 -15.5 16t1 35.5t10.5 42.5t13 44t8 34q4 17 0 25.5t-17 16.5t-16 10q-33 26 -33 81q0 59 26.5 97t78.5 37q54 -1 85.5 -32t33.5 -79zM274 1323q0 -83 -22 -139q-13 -32 -25.5 -59
t-33.5 -61.5t-45 -52.5t-48 -14q-12 2 -15.5 15.5t1.5 34.5t11 42t14 44.5t10 33.5q4 17 -1 25.5t-19 16t-17 10.5q-31 25 -31 81q0 59 26.5 97t78.5 37q54 -1 85 -32t31 -79z" />
    <glyph glyph-name="quotedblbase" unicode="&#x201e;" horiz-adv-x="585" 
d="M535 131q3 -73 -23 -137q-12 -31 -25.5 -59t-34 -62t-45 -53.5t-47.5 -16.5q-12 2 -15.5 16t1 35.5t10.5 42.5t13 44t8 34q4 17 0 25.5t-17 16.5t-16 10q-33 26 -33 82q0 59 26.5 96.5t78.5 36.5q54 -1 85.5 -32t33.5 -79zM274 131q0 -83 -22 -139q-13 -32 -25.5 -59
t-33.5 -61.5t-45 -52.5t-48 -14q-12 2 -15.5 15.5t1.5 34.5t11 42t14 44.5t10 33.5q4 17 -1 25.5t-19 16t-17 10.5q-31 25 -31 82q0 58 26.5 96.5t78.5 38.5q54 -1 85 -32.5t31 -80.5z" />
    <glyph glyph-name="dagger" unicode="&#x2020;" horiz-adv-x="403" 
d="M375 1237q0 -63 -8 -63q-12 0 -26 0.5t-22 1t-17.5 0.5t-14.5 -1.5t-9.5 -4.5t-6 -8t-1.5 -13v-537q0 -18 -63 -18q-62 0 -62 14v535q0 8 -1 14t-5 9.5t-7 5t-11 2.5t-13.5 1t-17.5 -0.5t-20 -0.5q-19 0 -23 13t-4 52q0 33 6 45t23 12h19q37 0 45.5 3.5t8.5 23.5v98
q0 15 62 15q63 0 63 -19v-100q0 -16 10.5 -19.5t44.5 -2.5q24 1 40 1q10 0 10 -59z" />
    <glyph glyph-name="daggerdbl" unicode="&#x2021;" horiz-adv-x="403" 
d="M375 610q0 -59 -19 -59q-7 0 -23.5 0.5t-24.5 0.5t-18.5 -2t-15 -7t-4.5 -13v-100q0 -16 -63 -16q-62 0 -62 14v96q0 5 -0.5 8.5l-1 7t-2.5 5t-3.5 3t-5.5 2.5t-7 1h-9.5h-11.5h-14.5h-17.5q-17 0 -23 12t-6 45q0 39 4 52.5t23 13.5q42 0 58.5 6t16.5 27v438
q0 8 -1.5 13.5t-6 9t-8 5.5t-12 2.5t-13.5 0.5h-17h-17q-19 0 -23 13t-4 52q0 33 6 45t23 12h19q37 0 45.5 3.5t8.5 23.5v98q0 15 62 15q63 0 63 -19v-100q0 -8 5 -13t16 -7t19 -2t23 0.5t19 0.5q23 0 23 -59q0 -34 -4 -48.5t-15 -14.5q-9 0 -25 1t-24.5 1t-18 -2t-14 -8
t-4.5 -17v-451q0 -10 6 -16.5t17.5 -8.5t21 -2.5t24.5 0.5t19 1q11 0 14 -14t3 -50z" />
    <glyph glyph-name="bullet" unicode="&#x2022;" horiz-adv-x="575" 
d="M524 537q0 -31 -1 -52t-6 -49.5t-14 -48.5t-26 -42.5t-41 -37.5t-59.5 -27t-81.5 -18q-69 -8 -128.5 33t-90.5 110.5t-23 143.5q4 43 10.5 74.5t23 65.5t41.5 54t67.5 32t99.5 9q98 -4 163.5 -75.5t65.5 -171.5z" />
    <glyph glyph-name="ellipsis" unicode="&#x2026;" horiz-adv-x="989" 
d="M938 102q2 -51 -17 -78t-81 -34q-49 -4 -76 30t-27 82q2 50 27 81.5t76 27.5q98 -8 98 -109zM584 102q2 -51 -17.5 -78t-81.5 -34q-49 -4 -75.5 30t-26.5 82q2 50 26.5 81.5t75.5 27.5q99 -8 99 -109zM250 102q2 -51 -16.5 -78.5t-79.5 -31.5q-49 -6 -77 28.5t-26 81.5
q2 50 26 81.5t77 27.5q96 -8 96 -109z" />
    <glyph glyph-name="perthousand" unicode="&#x2030;" horiz-adv-x="1175" 
d="M356 1069q0 -65 -41.5 -107t-107.5 -42q-64 0 -107 43t-43 106v217q0 63 43 105.5t107 42.5q66 0 107.5 -41.5t41.5 -106.5v-217zM1114 147q0 -63 -42 -105t-107 -42q-63 0 -105.5 42.5t-42.5 104.5v220q0 62 42.5 103.5t105.5 41.5q66 0 107.5 -41t41.5 -104v-220z
M711 1393q-245 -684 -500 -1360q-11 -33 -84 -33q-10 0 -17.5 0.5t-17.5 1.5t-15 3t-11 5.5t-5.5 9t2.5 13.5q459 1251 500 1366q11 33 72 33q36 0 59.5 -9.5t16.5 -29.5zM737 147q0 -63 -41.5 -105t-107.5 -42q-63 0 -105.5 42.5t-42.5 104.5v220q0 62 42.5 103.5
t105.5 41.5q66 0 107.5 -41t41.5 -104v-220zM240 1092v174q0 55 -33 55q-35 0 -35 -55v-174q0 -56 35 -56q33 0 33 56zM999 170v176q0 55 -34 55q-33 0 -33 -55v-176q0 -55 33 -55q34 0 34 55zM623 170v176q0 55 -35 55q-33 0 -33 -55v-176q0 -55 33 -55q35 0 35 55z" />
    <glyph glyph-name="guilsinglleft" unicode="&#x2039;" horiz-adv-x="362" 
d="M322 764q-142 -245 -142 -258q0 -20 139 -256q23 -42 -10 -49q-11 -3 -37.5 -20.5t-33.5 -20.5q-17 -12 -60 55q-46 73 -102 174t-56 117q0 7 12 30.5t34 60.5t41 69t46.5 76t36.5 59q39 60 56 49q7 -3 30.5 -18.5t34.5 -18.5q34 -7 11 -49z" />
    <glyph glyph-name="guilsinglright" unicode="&#x203a;" horiz-adv-x="362" 
d="M340 504q0 -15 -58 -114t-110 -179q-40 -59 -57 -51q-8 4 -30.5 20t-33.5 19q-34 7 -10 49q139 240 139 256q0 6 -19 43t-62 115t-56 102q-23 40 10 47q11 3 37 20.5t33 20.5q20 10 57 -53q47 -75 103.5 -177t56.5 -118z" />
    <glyph glyph-name="fraction" unicode="&#x2044;" horiz-adv-x="647" 
d="M678 1395q-12 -32 -508 -1362q-11 -33 -121 -33q-18 0 -31 1t-27 3.5t-20 9.5t-2 17q146 400 508 1376q10 29 103 29q45 0 75 -10t23 -31z" />
    <glyph glyph-name="trademark" unicode="&#x2122;" horiz-adv-x="675" 
d="M614 946q0 -12 -39 -12q-38 0 -38 10v252q0 39 -18 -18q-7 -20 -20 -69q-7 -25 -10 -34q-5 -15 -22.5 -14t-22.5 16q-37 125 -44 125q-3 1 -3 -14v-242q0 -12 -41 -12q-39 0 -39 10v469q0 11 6.5 16t13 6t21.5 1q21 0 27.5 -6t11.5 -23q63 -207 70 -207q8 0 70 213
q7 23 38 23q23 0 31 -6t8 -23v-461zM268 1397q0 -39 -6 -39q-8 0 -18.5 0.5t-16 0.5h-12t-10 -1t-7 -3.5t-4.5 -6t-1 -9.5v-393q0 -12 -41 -12q-37 0 -37 10v391q0 6 -1 10.5t-4 7t-5.5 4t-8 2t-10 0t-13 -0.5h-14.5q-13 0 -15.5 7t-2.5 34q0 23 4 30t16 7h199q8 0 8 -39z
" />
    <glyph glyph-name="minus" unicode="&#x2212;" 
d="M791 735q0 61 -4 73.5t-27 12.5h-88q-17 0 -21 5.5t-4 21.5v299q0 27 -15.5 44t-35.5 17h-90q-19 0 -19 17v176q0 22 -15.5 27.5t-65.5 5.5q-45 0 -63.5 -6t-18.5 -25v-180q0 -15 -15 -15h-86q-16 0 -37.5 -19t-21.5 -38v-297q0 -25 -8 -30q-6 -3 -17 -3h-86
q-23 0 -28 -13.5t-5 -72.5q0 -51 5.5 -64.5t25.5 -13.5h86q19 0 23 -4.5t4 -21.5v-350q0 -21 15 -38.5t38 -17.5h94q8 0 10.5 -2.5t2.5 -11.5v-184q0 -21 12 -24t70 -3t69.5 4t11.5 27v176q0 18 15 18h100q19 0 32 16t13 48v342q0 17 4 21.5t23 4.5h90q19 0 23 11t4 55v12z
M481 416q0 -20 -8.5 -27.5t-26.5 -7.5h-81q-18 0 -26.5 7.5t-8.5 27.5v604q0 31 30 31h91q30 0 30 -31v-604z" />
    <glyph glyph-name="fi" unicode="&#xfb01;" horiz-adv-x="823" 
d="M758 1260q2 -38 1.5 -66.5t-29 -48t-91.5 -27.5q-55 -6 -93 41.5t-32 106.5q3 28 8.5 48t18.5 39t37.5 28t60.5 8q50 -3 83 -39.5t36 -89.5zM752 37q0 -27 -15.5 -32t-99.5 -5q-77 0 -91 4t-14 29v917q0 25 16 30t89 5q82 0 98.5 -5t16.5 -32v-911zM457 856
q0 -48 -3.5 -67t-6.5 -20t-17 -1q-80 0 -97.5 -5t-17.5 -30v-696q0 -27 -14.5 -32t-89.5 -5q-76 0 -92.5 4.5t-16.5 28.5v700q0 25 -9 31t-48 6h-1q-17 0 -20.5 12t-3.5 76q0 67 3.5 86t17.5 19q21 0 30.5 0.5t17.5 4.5t11 13q2 18 2 113q0 90 24 152.5t83 115.5
q33 29 93.5 50.5t131.5 21.5q12 0 14.5 -14t2.5 -64v-29q0 -47 -2 -69t-6 -28.5t-13 -6.5q-25 0 -52 -14t-42 -35q-21 -33 -21 -121q0 -54 4 -72q1 -7 8.5 -10.5t25 -5.5t28.5 -2h37h14q17 0 21 -19t4 -88z" />
    <glyph glyph-name="fl" unicode="&#xfb02;" horiz-adv-x="823" 
d="M743 33q0 -24 -16 -28.5t-98 -4.5q-74 0 -88.5 4t-14.5 25v1370q0 23 16.5 28t86.5 5q78 0 96 -5.5t18 -29.5v-1364zM457 856q0 -48 -3.5 -67t-6.5 -20t-17 -1q-80 0 -97.5 -5t-17.5 -30v-696q0 -27 -14.5 -32t-89.5 -5q-76 0 -92.5 4.5t-16.5 28.5v700q0 25 -9 31t-48 6
h-1q-17 0 -20.5 12t-3.5 76q0 67 3.5 86t17.5 19q21 0 30.5 0.5t17.5 4.5t11 13q2 18 2 113q0 90 24 152.5t83 115.5q33 29 93.5 50.5t131.5 21.5q12 0 14.5 -14t2.5 -64v-29q0 -47 -2 -69t-6 -28.5t-13 -6.5q-25 0 -52 -14t-42 -35q-21 -33 -21 -121q0 -54 4 -72
q1 -7 8.5 -10.5t25 -5.5t28.5 -2h37h14q17 0 21 -19t4 -88z" />
    <glyph glyph-name="c274" horiz-adv-x="909" 
d="M887 856q0 -48 -3.5 -67t-6.5 -20t-17 -1q-80 0 -97.5 -5t-17.5 -30v-696q0 -27 -14.5 -32t-89.5 -5q-76 0 -92.5 4.5t-16.5 28.5v700q0 25 -9 31t-48 6h-45q-79 0 -97 -6t-18 -31v-696q0 -27 -14.5 -32t-89.5 -5q-76 0 -92.5 4.5t-16.5 28.5v700q0 25 -9 31t-48 6h-1
q-17 0 -20.5 12t-3.5 76q0 67 3.5 86t17.5 19q21 0 30.5 0.5t17.5 4.5t11 13q2 18 2 113q0 90 24 152.5t83 115.5q33 29 93.5 50.5t131.5 21.5q12 0 14.5 -14t2.5 -64v-29q0 -47 -2 -69t-6 -28.5t-13 -6.5q-25 0 -52 -14t-42 -35q-21 -33 -21 -121q0 -54 4 -72
q1 -7 8.5 -10.5t25 -5.5t28.5 -2h37h14h39q21 0 30.5 0.5t17.5 4.5t11 13q2 18 2 113q0 90 24 152.5t83 115.5q33 29 93.5 50.5t131.5 21.5q12 0 14.5 -14t2.5 -64v-29q0 -47 -2 -69t-6 -28.5t-13 -6.5q-25 0 -52 -14t-42 -35q-21 -33 -21 -121q0 -49 5 -72q1 -7 8.5 -10.5
t24.5 -5.5t28 -2h37h14q17 0 21 -19t4 -88z" />
    <glyph glyph-name="c275" horiz-adv-x="1253" 
d="M1188 1260q2 -38 1.5 -66.5t-29 -48t-91.5 -27.5q-55 -6 -93 41.5t-32 106.5q3 28 8.5 48t18.5 39t37.5 28t60.5 8q50 -3 83 -39.5t36 -89.5zM1182 37q0 -27 -15.5 -32t-99.5 -5q-77 0 -90.5 4t-13.5 29v917q0 25 16 30t88 5q82 0 98.5 -5t16.5 -32v-911zM887 856
q0 -48 -3.5 -67t-6.5 -20t-17 -1q-80 0 -97.5 -5t-17.5 -30v-696q0 -27 -14.5 -32t-89.5 -5q-76 0 -92.5 4.5t-16.5 28.5v700q0 25 -9 31t-48 6h-45q-79 0 -97 -6t-18 -31v-696q0 -27 -14.5 -32t-89.5 -5q-76 0 -92.5 4.5t-16.5 28.5v700q0 25 -9 31t-48 6h-1
q-17 0 -20.5 12t-3.5 76q0 67 3.5 86t17.5 19q21 0 30.5 0.5t17.5 4.5t11 13q2 18 2 113q0 90 24 152.5t83 115.5q33 29 93.5 50.5t131.5 21.5q12 0 14.5 -14t2.5 -64v-29q0 -47 -2 -69t-6 -28.5t-13 -6.5q-25 0 -52 -14t-42 -35q-21 -33 -21 -121q0 -54 4 -72
q1 -7 8.5 -10.5t25 -5.5t28.5 -2h37h14h39q21 0 30.5 0.5t17.5 4.5t11 13q2 18 2 113q0 90 24 152.5t83 115.5q33 29 93.5 50.5t131.5 21.5q12 0 14.5 -14t2.5 -64v-29q0 -47 -2 -69t-6 -28.5t-13 -6.5q-25 0 -52 -14t-42 -35q-21 -33 -21 -121q0 -49 5 -72q1 -7 8.5 -10.5
t24.5 -5.5t28 -2h37h14q17 0 21 -19t4 -88z" />
    <glyph glyph-name="c276" 
d="M791 735q0 61 -4 73.5t-27 12.5h-88q-17 0 -21 5.5t-4 21.5v299q0 27 -15.5 44t-35.5 17h-90q-19 0 -19 17v176q0 22 -15.5 27.5t-65.5 5.5q-45 0 -63.5 -6t-18.5 -25v-180q0 -15 -15 -15h-86q-16 0 -37.5 -19t-21.5 -38v-297q0 -25 -8 -30q-6 -3 -17 -3h-86
q-23 0 -28 -13.5t-5 -72.5q0 -51 5.5 -64.5t25.5 -13.5h86q19 0 23 -4.5t4 -21.5v-350q0 -21 15 -38.5t38 -17.5h94q8 0 10.5 -2.5t2.5 -11.5v-184q0 -21 12 -24t70 -3t69.5 4t11.5 27v176q0 18 15 18h100q19 0 32 16t13 48v342q0 17 4 21.5t23 4.5h90q19 0 23 11t4 55v12z
M481 416q0 -20 -8.5 -27.5t-26.5 -7.5h-81q-18 0 -26.5 7.5t-8.5 27.5v604q0 31 30 31h91q30 0 30 -31v-604z" />
    <glyph glyph-name="c277" 
d="M791 735q0 61 -4 73.5t-27 12.5h-88q-17 0 -21 5.5t-4 21.5v299q0 27 -15.5 44t-35.5 17h-90q-19 0 -19 17v176q0 22 -15.5 27.5t-65.5 5.5q-45 0 -63.5 -6t-18.5 -25v-180q0 -15 -15 -15h-86q-16 0 -37.5 -19t-21.5 -38v-297q0 -25 -8 -30q-6 -3 -17 -3h-86
q-23 0 -28 -13.5t-5 -72.5q0 -51 5.5 -64.5t25.5 -13.5h86q19 0 23 -4.5t4 -21.5v-350q0 -21 15 -38.5t38 -17.5h94q8 0 10.5 -2.5t2.5 -11.5v-184q0 -21 12 -24t70 -3t69.5 4t11.5 27v176q0 18 15 18h100q19 0 32 16t13 48v342q0 17 4 21.5t23 4.5h90q19 0 23 11t4 55v12z
M481 416q0 -20 -8.5 -27.5t-26.5 -7.5h-81q-18 0 -26.5 7.5t-8.5 27.5v604q0 31 30 31h91q30 0 30 -31v-604z" />
    <glyph glyph-name="c278" 
d="M791 735q0 61 -4 73.5t-27 12.5h-88q-17 0 -21 5.5t-4 21.5v299q0 27 -15.5 44t-35.5 17h-90q-19 0 -19 17v176q0 22 -15.5 27.5t-65.5 5.5q-45 0 -63.5 -6t-18.5 -25v-180q0 -15 -15 -15h-86q-16 0 -37.5 -19t-21.5 -38v-297q0 -25 -8 -30q-6 -3 -17 -3h-86
q-23 0 -28 -13.5t-5 -72.5q0 -51 5.5 -64.5t25.5 -13.5h86q19 0 23 -4.5t4 -21.5v-350q0 -21 15 -38.5t38 -17.5h94q8 0 10.5 -2.5t2.5 -11.5v-184q0 -21 12 -24t70 -3t69.5 4t11.5 27v176q0 18 15 18h100q19 0 32 16t13 48v342q0 17 4 21.5t23 4.5h90q19 0 23 11t4 55v12z
M481 416q0 -20 -8.5 -27.5t-26.5 -7.5h-81q-18 0 -26.5 7.5t-8.5 27.5v604q0 31 30 31h91q30 0 30 -31v-604z" />
    <glyph glyph-name="c279" 
d="M791 735q0 61 -4 73.5t-27 12.5h-88q-17 0 -21 5.5t-4 21.5v299q0 27 -15.5 44t-35.5 17h-90q-19 0 -19 17v176q0 22 -15.5 27.5t-65.5 5.5q-45 0 -63.5 -6t-18.5 -25v-180q0 -15 -15 -15h-86q-16 0 -37.5 -19t-21.5 -38v-297q0 -25 -8 -30q-6 -3 -17 -3h-86
q-23 0 -28 -13.5t-5 -72.5q0 -51 5.5 -64.5t25.5 -13.5h86q19 0 23 -4.5t4 -21.5v-350q0 -21 15 -38.5t38 -17.5h94q8 0 10.5 -2.5t2.5 -11.5v-184q0 -21 12 -24t70 -3t69.5 4t11.5 27v176q0 18 15 18h100q19 0 32 16t13 48v342q0 17 4 21.5t23 4.5h90q19 0 23 11t4 55v12z
M481 416q0 -20 -8.5 -27.5t-26.5 -7.5h-81q-18 0 -26.5 7.5t-8.5 27.5v604q0 31 30 31h91q30 0 30 -31v-604z" />
    <glyph glyph-name="c280" 
d="M791 735q0 61 -4 73.5t-27 12.5h-88q-17 0 -21 5.5t-4 21.5v299q0 27 -15.5 44t-35.5 17h-90q-19 0 -19 17v176q0 22 -15.5 27.5t-65.5 5.5q-45 0 -63.5 -6t-18.5 -25v-180q0 -15 -15 -15h-86q-16 0 -37.5 -19t-21.5 -38v-297q0 -25 -8 -30q-6 -3 -17 -3h-86
q-23 0 -28 -13.5t-5 -72.5q0 -51 5.5 -64.5t25.5 -13.5h86q19 0 23 -4.5t4 -21.5v-350q0 -21 15 -38.5t38 -17.5h94q8 0 10.5 -2.5t2.5 -11.5v-184q0 -21 12 -24t70 -3t69.5 4t11.5 27v176q0 18 15 18h100q19 0 32 16t13 48v342q0 17 4 21.5t23 4.5h90q19 0 23 11t4 55v12z
M481 416q0 -20 -8.5 -27.5t-26.5 -7.5h-81q-18 0 -26.5 7.5t-8.5 27.5v604q0 31 30 31h91q30 0 30 -31v-604z" />
    <glyph glyph-name="c281" horiz-adv-x="1134" 
d="M1067 936q0 -205 -146.5 -350.5t-353.5 -145.5q-135 0 -249.5 66.5t-181 180.5t-66.5 249q0 136 66.5 251t181 182t249.5 67q136 0 251 -67t182 -182t67 -251zM961 940q0 161 -114.5 275t-275.5 114t-276 -114t-115 -275t114.5 -274t276.5 -113t276 113t114 274z
M752 1040q0 -58 -44 -97.5t-128 -39.5h-37q-26 0 -32.5 -3.5t-6.5 -18.5v-199q0 -8 -8.5 -10t-42.5 -2q-45 0 -45 12v524q0 15 8 21q12 4 35 4h129q84 0 128 -40.5t44 -100.5v-50zM645 1049q0 -31 -19 -41.5t-75 -10.5q-33 0 -41 2q-6 2 -6 15v100v27h43q58 0 78 -11.5
t20 -46.5v-34z" />
    <glyph glyph-name="c282" 
d="M791 735q0 61 -4 73.5t-27 12.5h-88q-17 0 -21 5.5t-4 21.5v299q0 27 -15.5 44t-35.5 17h-90q-19 0 -19 17v176q0 22 -15.5 27.5t-65.5 5.5q-45 0 -63.5 -6t-18.5 -25v-180q0 -15 -15 -15h-86q-16 0 -37.5 -19t-21.5 -38v-297q0 -25 -8 -30q-6 -3 -17 -3h-86
q-23 0 -28 -13.5t-5 -72.5q0 -51 5.5 -64.5t25.5 -13.5h86q19 0 23 -4.5t4 -21.5v-350q0 -21 15 -38.5t38 -17.5h94q8 0 10.5 -2.5t2.5 -11.5v-184q0 -21 12 -24t70 -3t69.5 4t11.5 27v176q0 18 15 18h100q19 0 32 16t13 48v342q0 17 4 21.5t23 4.5h90q19 0 23 11t4 55v12z
M481 416q0 -20 -8.5 -27.5t-26.5 -7.5h-81q-18 0 -26.5 7.5t-8.5 27.5v604q0 31 30 31h91q30 0 30 -31v-604z" />
    <glyph glyph-name="c283" 
d="M791 735q0 61 -4 73.5t-27 12.5h-88q-17 0 -21 5.5t-4 21.5v299q0 27 -15.5 44t-35.5 17h-90q-19 0 -19 17v176q0 22 -15.5 27.5t-65.5 5.5q-45 0 -63.5 -6t-18.5 -25v-180q0 -15 -15 -15h-86q-16 0 -37.5 -19t-21.5 -38v-297q0 -25 -8 -30q-6 -3 -17 -3h-86
q-23 0 -28 -13.5t-5 -72.5q0 -51 5.5 -64.5t25.5 -13.5h86q19 0 23 -4.5t4 -21.5v-350q0 -21 15 -38.5t38 -17.5h94q8 0 10.5 -2.5t2.5 -11.5v-184q0 -21 12 -24t70 -3t69.5 4t11.5 27v176q0 18 15 18h100q19 0 32 16t13 48v342q0 17 4 21.5t23 4.5h90q19 0 23 11t4 55v12z
M481 416q0 -20 -8.5 -27.5t-26.5 -7.5h-81q-18 0 -26.5 7.5t-8.5 27.5v604q0 31 30 31h91q30 0 30 -31v-604z" />
    <glyph glyph-name="c284" horiz-adv-x="962" 
d="M948 1393q-37 -102 -248.5 -691.5t-230.5 -640.5q-14 -39 -30 -50t-70 -11q-79 0 -103 9.5t-35 39.5q-45 113 -211 516q-14 35 6.5 50.5t98.5 15.5q44 0 66 -4.5t27 -10t9 -16.5q18 -46 38.5 -100.5t40.5 -107t48 -126.5q12 35 175.5 529t203.5 616q3 11 27.5 16t91.5 5
q39 0 63 -6.5t30 -15t3 -17.5z" />
    <glyph glyph-name="c285" 
d="M791 735q0 61 -4 73.5t-27 12.5h-88q-17 0 -21 5.5t-4 21.5v299q0 27 -15.5 44t-35.5 17h-90q-19 0 -19 17v176q0 22 -15.5 27.5t-65.5 5.5q-45 0 -63.5 -6t-18.5 -25v-180q0 -15 -15 -15h-86q-16 0 -37.5 -19t-21.5 -38v-297q0 -25 -8 -30q-6 -3 -17 -3h-86
q-23 0 -28 -13.5t-5 -72.5q0 -51 5.5 -64.5t25.5 -13.5h86q19 0 23 -4.5t4 -21.5v-350q0 -21 15 -38.5t38 -17.5h94q8 0 10.5 -2.5t2.5 -11.5v-184q0 -21 12 -24t70 -3t69.5 4t11.5 27v176q0 18 15 18h100q19 0 32 16t13 48v342q0 17 4 21.5t23 4.5h90q19 0 23 11t4 55v12z
M481 416q0 -20 -8.5 -27.5t-26.5 -7.5h-81q-18 0 -26.5 7.5t-8.5 27.5v604q0 31 30 31h91q30 0 30 -31v-604z" />
    <glyph glyph-name="c286" 
d="M791 735q0 61 -4 73.5t-27 12.5h-88q-17 0 -21 5.5t-4 21.5v299q0 27 -15.5 44t-35.5 17h-90q-19 0 -19 17v176q0 22 -15.5 27.5t-65.5 5.5q-45 0 -63.5 -6t-18.5 -25v-180q0 -15 -15 -15h-86q-16 0 -37.5 -19t-21.5 -38v-297q0 -25 -8 -30q-6 -3 -17 -3h-86
q-23 0 -28 -13.5t-5 -72.5q0 -51 5.5 -64.5t25.5 -13.5h86q19 0 23 -4.5t4 -21.5v-350q0 -21 15 -38.5t38 -17.5h94q8 0 10.5 -2.5t2.5 -11.5v-184q0 -21 12 -24t70 -3t69.5 4t11.5 27v176q0 18 15 18h100q19 0 32 16t13 48v342q0 17 4 21.5t23 4.5h90q19 0 23 11t4 55v12z
M481 416q0 -20 -8.5 -27.5t-26.5 -7.5h-81q-18 0 -26.5 7.5t-8.5 27.5v604q0 31 30 31h91q30 0 30 -31v-604z" />
    <glyph glyph-name="c287" 
d="M791 735q0 61 -4 73.5t-27 12.5h-88q-17 0 -21 5.5t-4 21.5v299q0 27 -15.5 44t-35.5 17h-90q-19 0 -19 17v176q0 22 -15.5 27.5t-65.5 5.5q-45 0 -63.5 -6t-18.5 -25v-180q0 -15 -15 -15h-86q-16 0 -37.5 -19t-21.5 -38v-297q0 -25 -8 -30q-6 -3 -17 -3h-86
q-23 0 -28 -13.5t-5 -72.5q0 -51 5.5 -64.5t25.5 -13.5h86q19 0 23 -4.5t4 -21.5v-350q0 -21 15 -38.5t38 -17.5h94q8 0 10.5 -2.5t2.5 -11.5v-184q0 -21 12 -24t70 -3t69.5 4t11.5 27v176q0 18 15 18h100q19 0 32 16t13 48v342q0 17 4 21.5t23 4.5h90q19 0 23 11t4 55v12z
M481 416q0 -20 -8.5 -27.5t-26.5 -7.5h-81q-18 0 -26.5 7.5t-8.5 27.5v604q0 31 30 31h91q30 0 30 -31v-604z" />
    <glyph glyph-name="c288" 
d="M791 735q0 -63 -6 -71q-5 -7 -21 -7h-90q-19 0 -23 -4.5t-4 -21.5v-342q0 -32 -13 -48t-32 -16h-100q-15 0 -15 -18v-176q0 -23 -11.5 -27t-69.5 -4t-70 3t-12 24v184q0 9 -2.5 11.5t-10.5 2.5h-94q-23 0 -38 17.5t-15 38.5v350q0 17 -4 21.5t-23 4.5h-86
q-20 0 -25.5 13.5t-5.5 64.5q0 59 5 72.5t28 13.5h86q13 0 18.5 5t6 9.5t0.5 18.5v297q0 19 21.5 38t37.5 19h86q15 0 15 15v180q0 19 18.5 25t63.5 6q50 0 65.5 -5.5t15.5 -27.5v-176q0 -17 19 -17h90q20 0 35.5 -17t15.5 -44v-299q0 -11 1 -15.5t6.5 -8t17.5 -3.5h88
q23 0 27 -12.5t4 -73.5zM481 416v604q0 31 -30 31h-91q-30 0 -30 -31v-604q0 -20 8.5 -27.5t26.5 -7.5h81q18 0 26.5 7.5t8.5 27.5z" />
    </font>
</defs>
</svg>
