<?xml version="1.0" standalone="no"?>
<!DOCTYPE svg PUBLIC "-//W3C//DTD SVG 1.1//EN" "http://www.w3.org/Graphics/SVG/1.1/DTD/svg11.dtd" >
<svg xmlns="http://www.w3.org/2000/svg" xmlns:xlink="http://www.w3.org/1999/xlink" version="1.1">
<metadata>
Created by FontForge 20170731 at Wed Aug 11 21:25:12 2021
 By Aleksey,,,
Copyright 2019 The Work Sans Project Authors (https://github.com/weiweihuanghuang/Work-Sans)
</metadata>
<defs>
<font id="WorkSans-Bold" horiz-adv-x="579" >
  <font-face 
    font-family="Work Sans"
    font-weight="700"
    font-stretch="normal"
    units-per-em="1000"
    panose-1="0 0 0 0 0 0 0 0 0 0"
    ascent="800"
    descent="-200"
    x-height="500"
    cap-height="660"
    bbox="-257 -341 1325 1098"
    underline-thickness="50"
    underline-position="-175"
    unicode-range="U+000D-FB02"
  />
<missing-glyph horiz-adv-x="500" 
d="M130 80v500h240v-500h-240zM50 0h400v660h-400v-660z" />
    <glyph glyph-name="fi" unicode="fi" horiz-adv-x="706" 
d="M294 726q41 0 72 -8.5t46 -19.5l-17 -106q-11 7 -25 11t-35 4q-35 0 -57.5 -16t-22.5 -56v-65l10 -28v-442h-170v546q0 48 15.5 82t43.5 56t64 32t76 10zM407 500v-121h-392v121h392zM561 558q-52 0 -75.5 19.5t-23.5 61.5q0 43 23.5 62.5t75.5 19.5q51 0 75 -19.5
t24 -62.5q0 -42 -24 -61.5t-75 -19.5zM646 500v-500h-170v500h170z" />
    <glyph glyph-name="fl" unicode="fl" horiz-adv-x="742" 
d="M294 726q41 0 72 -8.5t46 -19.5l-17 -106q-11 7 -25 11t-35 4q-35 0 -57.5 -16t-22.5 -56v-65l10 -28v-442h-170v546q0 48 15.5 82t43.5 56t64 32t76 10zM407 500v-121h-392v121h392zM644 712v-542q0 -33 11 -47t37 -14q15 0 25 2t24 6l-11 -102q-18 -11 -47 -18t-57 -7
q-80 0 -116 37t-36 121v564h170z" />
    <glyph glyph-name="f_f" unicode="ff" horiz-adv-x="817" 
d="M294 726q41 0 72 -8.5t46 -19.5l-17 -106q-11 7 -25 11t-35 4q-35 0 -57.5 -16t-22.5 -56v-65l10 -28v-442h-170v546q0 48 15.5 82t43.5 56t64 32t76 10zM407 500v-121h-392v121h392zM696 726q41 0 72 -8.5t46 -19.5l-17 -106q-11 7 -25 11t-35 4q-35 0 -57.5 -16
t-22.5 -56v-65l10 -28v-442h-170v546q0 48 15.5 82t43.5 56t64 32t76 10zM809 500v-121h-392v121h392z" />
    <glyph glyph-name="f_f_i" unicode="ffi" horiz-adv-x="1108" 
d="M294 726q41 0 72 -8.5t46 -19.5l-17 -106q-11 7 -25 11t-35 4q-35 0 -57.5 -16t-22.5 -56v-65l10 -28v-442h-170v546q0 48 15.5 82t43.5 56t64 32t76 10zM407 500v-121h-392v121h392zM696 726q41 0 72 -8.5t46 -19.5l-17 -106q-11 7 -25 11t-35 4q-35 0 -57.5 -16
t-22.5 -56v-65l10 -28v-442h-170v546q0 48 15.5 82t43.5 56t64 32t76 10zM809 500v-121h-392v121h392zM963 558q-52 0 -75.5 19.5t-23.5 61.5q0 43 23.5 62.5t75.5 19.5q51 0 75 -19.5t24 -62.5q0 -42 -24 -61.5t-75 -19.5zM1048 500v-500h-170v500h170z" />
    <glyph glyph-name="f_f_l" unicode="ffl" horiz-adv-x="1144" 
d="M294 726q41 0 72 -8.5t46 -19.5l-17 -106q-11 7 -25 11t-35 4q-35 0 -57.5 -16t-22.5 -56v-65l10 -28v-442h-170v546q0 48 15.5 82t43.5 56t64 32t76 10zM407 500v-121h-392v121h392zM696 726q41 0 72 -8.5t46 -19.5l-17 -106q-11 7 -25 11t-35 4q-35 0 -57.5 -16
t-22.5 -56v-65l10 -28v-442h-170v546q0 48 15.5 82t43.5 56t64 32t76 10zM809 500v-121h-392v121h392zM1046 712v-542q0 -33 11 -47t37 -14q15 0 25 2t24 6l-11 -102q-18 -11 -47 -18t-57 -7q-80 0 -116 37t-36 121v564h170z" />
    <glyph glyph-name=".notdef" horiz-adv-x="500" 
d="M130 80v500h240v-500h-240zM50 0h400v660h-400v-660z" />
    <glyph glyph-name=".null" horiz-adv-x="0" 
 />
    <glyph glyph-name="nonmarkingreturn" horiz-adv-x="333" 
 />
    <glyph glyph-name="NULL" horiz-adv-x="0" 
 />
    <glyph glyph-name="NULL" horiz-adv-x="0" 
 />
    <glyph glyph-name="CR" unicode="&#xd;" horiz-adv-x="286" 
 />
    <glyph glyph-name="space" unicode=" " horiz-adv-x="286" 
 />
    <glyph glyph-name="exclam" unicode="!" horiz-adv-x="301" 
d="M239 660v-213l-19 -232h-139l-19 232v213h177zM150 159q46 0 71.5 -22t25.5 -62q0 -39 -25.5 -61t-71.5 -22q-44 0 -70 22t-26 61q0 40 26 62t70 22z" />
    <glyph glyph-name="quotedbl" unicode="&#x22;" horiz-adv-x="447" 
d="M403 678l-29 -277h-113v277h142zM205 678l-29 -277h-113v277h142z" />
    <glyph glyph-name="numbersign" unicode="#" horiz-adv-x="688" 
d="M572 660l-107 -660h-115l106 660h116zM619 261v-102h-593v102h593zM327 660l-106 -660h-116l106 660h116zM662 501v-102h-593v102h593z" />
    <glyph glyph-name="dollar" unicode="$" horiz-adv-x="641" 
d="M327 0q-65 0 -122.5 14.5t-104.5 40.5t-79 60l81 112q24 -33 62.5 -56t84 -35t87.5 -12q53 0 83 16t30 48q0 21 -18 35t-62 24l-135 32q-54 13 -95.5 35t-65 56.5t-23.5 81.5q0 61 33 108t95 73.5t149 26.5q89 0 157.5 -27t118.5 -82l-78 -101q-41 44 -91.5 66.5
t-115.5 22.5q-40 0 -65 -8.5t-37 -23t-12 -32.5q0 -15 7.5 -27t29 -21.5t63.5 -19.5l109 -24q95 -21 140 -61.5t45 -111.5q0 -68 -35 -115t-96.5 -71t-139.5 -24zM275 -88v836h105v-836h-105z" />
    <glyph glyph-name="percent" unicode="%" horiz-adv-x="938" 
d="M175 0l459 661h130l-459 -661h-130zM216 670q57 0 98.5 -23.5t64.5 -65.5t23 -99t-23 -99t-64.5 -65.5t-98.5 -23.5q-56 0 -97.5 23.5t-65 65.5t-23.5 99t23.5 99t65 65.5t97.5 23.5zM216 556q-19 0 -32 -8.5t-20 -25t-7 -40.5q0 -23 7 -40t20 -25.5t32 -8.5q20 0 33 8.5
t20 25.5t7 40q0 24 -7 40.5t-20 25t-33 8.5zM721 366q56 0 98 -23.5t65 -65.5t23 -99t-23 -99t-65 -65.5t-98 -23.5t-98 23.5t-65 65.5t-23 99t23 99t65 65.5t98 23.5zM721 252q-19 0 -32.5 -8.5t-20.5 -25t-7 -40.5q0 -23 7 -40t20.5 -25.5t32.5 -8.5q20 0 33 8.5t20 25.5
t7 40q0 24 -7 40.5t-20 25t-33 8.5z" />
    <glyph glyph-name="ampersand" unicode="&#x26;" horiz-adv-x="646" 
d="M257 -10q-69 0 -121 21t-81 61.5t-30 99.5q0 27 8.5 56.5t29.5 57t58.5 48t95.5 30.5l31 9q43 26 66.5 46.5t33 40t9.5 43.5q0 26 -15.5 40.5t-42.5 14.5q-29 0 -45 -17t-16 -45q0 -16 5.5 -31t22 -37t47.5 -57t81 -91q50 -54 84 -89.5t59.5 -54.5t49.5 -24.5t55 -2.5
l-15 -119q-41 0 -73 6t-65 25.5t-75 57.5t-103 102q-69 72 -112 119.5t-66 80.5t-31.5 61t-8.5 59q0 42 21.5 80.5t66.5 63.5t117 25q67 0 109.5 -22t63 -57.5t20.5 -75.5q0 -45 -21 -83t-65 -66.5t-115 -47.5l-31 -17q-34 -20 -53.5 -37t-27 -35.5t-7.5 -43.5t14 -44
t38.5 -29.5t56.5 -10.5q47 0 82 15t68 39l14 21q19 32 30.5 71t9.5 92l114 -3q0 -64 -20.5 -119.5t-60.5 -96.5l-30 -24q-33 -49 -91 -77.5t-139 -28.5z" />
    <glyph glyph-name="quotesingle" unicode="'" horiz-adv-x="250" 
d="M205 678l-29 -277h-113v277h142z" />
    <glyph glyph-name="parenleft" unicode="(" horiz-adv-x="391" 
d="M301 736l80 -78q-56 -51 -92 -108t-52.5 -124.5t-16.5 -152.5t16.5 -153.5t52.5 -125t92 -107.5l-80 -78q-115 77 -174.5 192.5t-59.5 271.5q0 154 59.5 270t174.5 193z" />
    <glyph glyph-name="parenright" unicode=")" horiz-adv-x="391" 
d="M90 -191l-80 78q57 51 92.5 107.5t51.5 125t16 152.5q0 85 -16 153t-51.5 125t-92.5 108l80 78q114 -77 174 -193t60 -271t-60 -270.5t-174 -192.5z" />
    <glyph glyph-name="asterisk" unicode="*" horiz-adv-x="588" 
d="M322 502l84 -78l83 -109l-98 -71l-78 113l-47 103l28 21zM266 502l28 -21l28 -21l-48 -103l-78 -113l-97 71l83 109zM76 615l129 -45l100 -56l-11 -33l-11 -33l-114 13l-130 39zM354 730l-3 -137l-22 -112h-35h-35l-22 112l-4 137h121zM513 615l37 -115l-132 -39
l-113 -13l-11 33l-11 33l100 56z" />
    <glyph glyph-name="plus" unicode="+" horiz-adv-x="604" 
d="M370 589v-529h-135v529h135zM553 386v-122h-502v122h502z" />
    <glyph glyph-name="comma" unicode="," horiz-adv-x="290" 
d="M142 172q37 0 61 -17t35.5 -44.5t11.5 -61.5q0 -45 -19.5 -86.5t-51 -73t-68.5 -47.5l-69 51q28 11 51.5 28t41 37t26.5 41l-5 3q-5 -4 -13 -6t-21 -2q-18 0 -36.5 9t-31 27t-12.5 46q0 32 14 53t37 32t49 11z" />
    <glyph glyph-name="hyphen" unicode="-" horiz-adv-x="528" 
d="M447 337v-139h-366v139h366z" />
    <glyph glyph-name="period" unicode="." horiz-adv-x="290" 
d="M145 172q47 0 73.5 -24t26.5 -67q0 -42 -26.5 -66t-73.5 -24q-46 0 -73 24t-27 66q0 43 27 67t73 24z" />
    <glyph glyph-name="slash" unicode="/" horiz-adv-x="468" 
d="M453 712l-280 -782h-158l280 782h158z" />
    <glyph glyph-name="zero" unicode="0" horiz-adv-x="644" 
d="M322 -10q-135 0 -204.5 86t-69.5 254t69.5 254t204.5 86t204.5 -86t69.5 -254t-69.5 -254t-204.5 -86zM322 124q37 0 60 20.5t33.5 66t10.5 119.5t-10.5 119.5t-33.5 66t-60 20.5q-36 0 -59.5 -20.5t-34 -66t-10.5 -119.5t10.5 -119.5t34 -66t59.5 -20.5z" />
    <glyph glyph-name="one" unicode="1" horiz-adv-x="431" 
d="M191 0v380q0 26 0.5 53.5t0.5 56.5q-33 -30 -73 -52.5t-84 -30.5l-16 142q26 2 55.5 13t58.5 27t52 34.5t35 36.5h137v-660h-166z" />
    <glyph glyph-name="two" unicode="2" horiz-adv-x="596" 
d="M60 0v110q85 53 145 99t97.5 87t55.5 78t18 72q0 38 -22.5 63.5t-66.5 25.5q-47 0 -73 -34.5t-28 -100.5l-147 45q2 74 35.5 124t91.5 75.5t132 25.5q65 0 112.5 -18.5t77.5 -49t44.5 -68t14.5 -76.5q0 -64 -33 -119.5t-95.5 -107t-151.5 -103.5v-1q17 1 40 2t48 1.5
t45 0.5h155v-131h-495z" />
    <glyph glyph-name="three" unicode="3" horiz-adv-x="593" 
d="M301 -10q-106 0 -176.5 41.5t-97.5 121.5l158 68q5 -36 18.5 -57.5t36.5 -31t54 -9.5q28 0 47.5 9.5t30.5 27.5t11 43q0 26 -10.5 42t-30 23t-47.5 7q-13 0 -24 -0.5t-25 -2.5v112q8 -1 16 -1.5t19 -0.5q47 0 67.5 19.5t20.5 61.5q0 36 -20.5 55t-57.5 19
q-39 0 -64 -20.5t-32 -69.5l-151 52q11 55 47 93t90.5 58t120.5 20q76 0 128 -22t79 -63t27 -96q0 -43 -13.5 -72t-34 -47t-41.5 -26.5t-35 -10.5v-3q18 0 41 -7t45 -22.5t36.5 -42.5t14.5 -67q0 -62 -32.5 -107t-88.5 -69.5t-127 -24.5z" />
    <glyph glyph-name="four" unicode="4" horiz-adv-x="646" 
d="M365 0v145h-322v108q9 16 23.5 39t34.5 53l215 315h201v-397h101v-118h-101v-145h-152zM181 263h186v200q0 20 1 41.5t2 43.5h-2q-10 -21 -23.5 -43.5t-25.5 -40.5l-117 -171q-5 -8 -10 -15t-11 -15z" />
    <glyph glyph-name="five" unicode="5" horiz-adv-x="583" 
d="M286 -10q-86 0 -149.5 33.5t-106.5 109.5l151 75q11 -40 35.5 -64t73.5 -24q31 0 53 11t34.5 32.5t12.5 52.5q0 30 -11.5 50t-33.5 30.5t-55 10.5q-24 0 -43 -4.5t-34.5 -13t-28.5 -21.5l-130 24l42 368h416v-133h-291l-17 -132l-3 -16h1q20 23 56 35t80 12q65 0 111 -26
t71 -71t25 -103q0 -61 -20.5 -105.5t-57 -73.5t-83 -43t-98.5 -14z" />
    <glyph glyph-name="six" unicode="6" horiz-adv-x="616" 
d="M342 670q53 0 98.5 -14t79.5 -46t51 -86l-140 -66q-10 35 -34.5 55.5t-65.5 20.5q-28 0 -51.5 -13.5t-40.5 -38.5t-25.5 -61t-8.5 -81v-6.5v-9.5l2 -6q12 30 37.5 50.5t58.5 31.5t66 11q61 0 109 -24t75.5 -68.5t27.5 -107.5q0 -68 -31 -117.5t-86 -76.5t-131 -27
q-85 0 -149.5 37.5t-100 112t-35.5 184.5q0 118 39 194t105.5 114t149.5 38zM330 295q-26 0 -47.5 -10.5t-34 -30.5t-12.5 -47q0 -26 13 -46t34 -31t47 -11q45 0 69.5 23t24.5 65q0 28 -11 47.5t-31.5 30t-51.5 10.5z" />
    <glyph glyph-name="seven" unicode="7" horiz-adv-x="608" 
d="M33 660h543v-122q-82 -81 -129.5 -166.5t-67 -177.5t-19.5 -194h-170q0 109 27.5 207.5t86 188.5t151.5 174l36 -45h-458v135z" />
    <glyph glyph-name="eight" unicode="8" horiz-adv-x="627" 
d="M313 668q75 0 130 -22t85.5 -62.5t30.5 -96.5q0 -53 -26 -91t-77 -58v-1q60 -20 93 -58.5t33 -98.5q0 -58 -32.5 -100.5t-92.5 -66t-144 -23.5q-83 0 -143 23.5t-92.5 66t-32.5 100.5q0 60 33 98.5t93 58.5v1q-50 19 -77 57.5t-27 91.5q0 56 30.5 96.5t86.5 62.5t129 22z
M314 543q-40 0 -64 -20t-24 -56q0 -35 24 -55.5t64 -20.5t63.5 20.5t23.5 55.5q0 36 -23.5 56t-63.5 20zM314 115q32 0 54.5 9.5t34.5 28.5t12 44q0 26 -12 44.5t-35 28t-54 9.5t-54.5 -9.5t-35.5 -28t-12 -44.5q0 -25 12 -44t35 -28.5t55 -9.5z" />
    <glyph glyph-name="nine" unicode="9" horiz-adv-x="616" 
d="M293 670q91 0 152.5 -38.5t92.5 -113.5t31 -186q0 -120 -35.5 -195.5t-97.5 -111t-143 -35.5q-86 0 -149.5 34.5t-94.5 109.5l154 61q8 -35 30.5 -55t62.5 -20q31 0 54 12.5t37.5 36.5t21.5 58.5t7 79.5v7.5v8.5h-3q-11 -30 -36 -49t-57 -28.5t-66 -9.5
q-62 0 -110.5 25.5t-75.5 72t-27 108.5q0 71 31.5 121.5t88 78.5t132.5 28zM293 538q-43 0 -68.5 -24t-25.5 -68q0 -40 26 -62.5t68 -22.5q27 0 48.5 11t33.5 30.5t12 46.5q0 28 -12 47.5t-33.5 30.5t-48.5 11z" />
    <glyph glyph-name="colon" unicode=":" horiz-adv-x="302" 
d="M151 510q47 0 73.5 -24t26.5 -67q0 -42 -26.5 -66t-73.5 -24q-46 0 -73 24t-27 66q0 43 27 67t73 24zM151 172q47 0 73.5 -24t26.5 -67q0 -42 -26.5 -66t-73.5 -24q-46 0 -73 24t-27 66q0 43 27 67t73 24z" />
    <glyph glyph-name="semicolon" unicode=";" horiz-adv-x="302" 
d="M148 172q37 0 61 -17t35.5 -44.5t11.5 -61.5q0 -45 -19.5 -86.5t-51 -73t-68.5 -47.5l-69 51q28 11 51.5 28t41 37t26.5 41l-5 3q-5 -4 -13 -6t-21 -2q-18 0 -36.5 9t-31 27t-12.5 46q0 32 14 53t37 32t49 11zM151 510q47 0 73.5 -24t26.5 -67q0 -42 -26.5 -66t-73.5 -24
q-46 0 -73 24t-27 66q0 43 27 67t73 24z" />
    <glyph glyph-name="less" unicode="&#x3c;" horiz-adv-x="604" 
d="M553 5l-490 218v147l490 218v-161l-358 -130l358 -130v-162z" />
    <glyph glyph-name="equal" unicode="=" horiz-adv-x="604" 
d="M539 483v-117h-474v117h474zM539 267v-117h-474v117h474z" />
    <glyph glyph-name="greater" unicode="&#x3e;" horiz-adv-x="604" 
d="M51 588l490 -218v-147l-490 -218v161l358 130l-358 130v162z" />
    <glyph glyph-name="question" unicode="?" horiz-adv-x="607" 
d="M308 670q74 0 132 -20.5t91.5 -62t33.5 -103.5t-25.5 -100.5t-69 -58t-95.5 -25.5l-10 -86h-150l1 152q63 6 99.5 18.5t51.5 31.5t15 45q0 23 -9.5 39t-28 24t-48.5 8q-43 0 -68 -25.5t-32 -75.5l-164 57q13 52 45.5 93.5t89 65t141.5 23.5zM292 159q45 0 70.5 -22
t25.5 -62q0 -39 -25.5 -61t-70.5 -22q-44 0 -69.5 22t-25.5 61q0 40 25.5 62t69.5 22z" />
    <glyph glyph-name="at" unicode="@" horiz-adv-x="931" 
d="M466 -185q-92 0 -169.5 27t-135 80t-89 130.5t-31.5 176.5q0 96 33.5 176t93.5 138.5t141.5 90t178.5 31.5q89 0 162 -27.5t126 -78.5t81.5 -121.5t28.5 -156.5q0 -78 -20 -133t-53.5 -89t-72 -50t-75.5 -16q-69 0 -104.5 34.5t-33.5 89.5q-22 -51 -64 -80t-91 -29
q-44 0 -78.5 22.5t-54 65.5t-19.5 102q0 51 15 98.5t43 86t68 60.5t90 22q29 0 55.5 -10.5t46 -32.5t26.5 -58l22 92h146l-65 -285q-3 -12 -5 -22.5t-2 -20.5q0 -27 13 -38t34 -11q27 0 50.5 20.5t38 64t14.5 111.5q0 73 -23 131.5t-66 100t-102 63t-130 21.5
q-80 0 -146 -25t-114.5 -73t-74.5 -115t-26 -149q0 -85 27 -148.5t74.5 -106t110 -64t133.5 -21.5t116.5 17.5t79.5 39.5l37 -62q-29 -19 -62 -34.5t-76 -25t-102 -9.5zM438 117q30 0 52.5 24t35 61t12.5 74q0 25 -8 42.5t-23 27t-37 9.5q-25 0 -44 -14t-33 -37t-21 -50
t-7 -52q0 -27 8.5 -46t25 -29t39.5 -10z" />
    <glyph glyph-name="A" unicode="A" horiz-adv-x="677" 
d="M673 0h-177l-46 149h-226l-47 -149h-173l232 660h206zM256 266h162l-81 267z" />
    <glyph glyph-name="B" unicode="B" horiz-adv-x="684" 
d="M73 0v660h321q122 -1 180 -46.5t58 -131.5q0 -56 -33 -96.5t-101 -51.5v-1q76 -10 113.5 -52.5t37.5 -102.5q0 -85 -60 -131.5t-180 -46.5h-336zM239 121h141q47 0 70 19t23 55q0 35 -23 53.5t-70 18.5h-141v-146zM239 390h125q92 0 92 72t-92 72h-125v-144z" />
    <glyph glyph-name="C" unicode="C" horiz-adv-x="681" 
d="M658 189q-19 -69 -61 -113.5t-100 -65t-128 -20.5q-100 0 -173 40.5t-112 116.5t-39 183t39 183t112 116.5t172 40.5q69 0 127 -19.5t98 -59.5t57 -103l-151 -61q-14 62 -45.5 85t-79.5 23q-47 0 -81.5 -23t-53 -68.5t-18.5 -113.5q0 -67 17 -113t51.5 -69t85.5 -23
q48 0 81.5 26.5t45.5 81.5z" />
    <glyph glyph-name="D" unicode="D" horiz-adv-x="718" 
d="M353 660q155 0 237.5 -86t82.5 -244t-82.5 -244t-237.5 -86h-280v660h280zM336 130q84 0 122.5 50.5t38.5 149.5t-38.5 149.5t-122.5 50.5h-91v-400h91z" />
    <glyph glyph-name="E" unicode="E" horiz-adv-x="631" 
d="M73 0v660h514v-133h-342v-134h272v-125h-272v-135h355v-133h-527z" />
    <glyph glyph-name="F" unicode="F" horiz-adv-x="612" 
d="M586 527h-341v-140h272v-133h-272v-254h-172v660h513v-133z" />
    <glyph glyph-name="G" unicode="G" horiz-adv-x="723" 
d="M346 -10q-88 0 -156.5 39t-106.5 115t-38 185q0 107 40 183t114.5 117t175.5 41q112 0 181 -40.5t107 -128.5l-159 -63q-13 51 -46 74t-82 23t-84 -23.5t-53 -69t-18 -112.5q0 -70 18.5 -117t55 -69.5t90.5 -22.5q29 0 53 7t42 20.5t28 34t10 48.5v10h-151v115h297v-356
h-117l-13 155l28 -24q-21 -68 -75.5 -104.5t-140.5 -36.5z" />
    <glyph glyph-name="H" unicode="H" horiz-adv-x="742" 
d="M669 660v-660h-172v660h172zM245 660v-660h-172v660h172zM589 399v-133h-432v133h432z" />
    <glyph glyph-name="I" unicode="I" horiz-adv-x="318" 
d="M245 660v-660h-172v660h172z" />
    <glyph glyph-name="J" unicode="J" horiz-adv-x="618" 
d="M557 660v-406q0 -125 -72 -194.5t-204 -69.5q-97 0 -156 34.5t-81 96t-9 140.5l168 30q-12 -91 8.5 -128.5t75.5 -37.5q54 0 76 36t22 111v388h172z" />
    <glyph glyph-name="K" unicode="K" horiz-adv-x="693" 
d="M672 660l-310 -371l-11 26l-157 -191l-33 139l320 397h191zM245 660v-660h-172v660h172zM418 442l266 -442h-195l-200 346z" />
    <glyph glyph-name="L" unicode="L" horiz-adv-x="602" 
d="M245 133h331v-133h-503v660h172v-527z" />
    <glyph glyph-name="M" unicode="M" horiz-adv-x="910" 
d="M837 660v-660h-152v303l5 203h-2l-163 -506h-139l-163 506h-2l5 -203v-303h-153v660h245l104 -336l37 -140h2l38 139l103 337h235z" />
    <glyph glyph-name="N" unicode="N" horiz-adv-x="741" 
d="M668 660v-660h-191l-205 357l-50 98h-1l4 -122v-333h-152v660h191l205 -357l50 -98h1l-4 122v333h152z" />
    <glyph glyph-name="O" unicode="O" horiz-adv-x="737" 
d="M369 670q100 0 172.5 -40.5t111.5 -116.5t39 -183t-39 -183t-111.5 -116.5t-172.5 -40.5t-173 40.5t-112 116.5t-39 183t39 183t112 116.5t173 40.5zM369 535q-48 0 -81 -23t-50 -68.5t-17 -113.5q0 -67 17 -113t50 -69t81 -23t80.5 23t49.5 69t17 113q0 68 -17 113.5
t-49.5 68.5t-80.5 23z" />
    <glyph glyph-name="P" unicode="P" horiz-adv-x="668" 
d="M376 660q81 0 138 -26t87 -75t30 -119t-30 -119t-87 -75t-138 -26h-131v-220h-172v660h303zM349 349q54 0 81.5 22.5t27.5 68.5t-27.5 68.5t-81.5 22.5h-104v-182h104z" />
    <glyph glyph-name="Q" unicode="Q" horiz-adv-x="737" 
d="M536 -203q-66 0 -116 22t-78 64t-28 104q0 20 5.5 42t17.5 43l100 23q-10 -22 -15 -40t-5 -33q0 -39 16 -60.5t43 -30t61 -8.5q43 0 72.5 9t48.5 25l26 -119q-26 -20 -67 -30.5t-81 -10.5zM369 670q100 0 172.5 -40.5t111.5 -116.5t39 -183t-39 -183t-111.5 -116.5
t-172.5 -40.5t-173 40.5t-112 116.5t-39 183t39 183t112 116.5t173 40.5zM369 535q-48 0 -81 -23t-50 -68.5t-17 -113.5q0 -67 17 -113t50 -69t81 -23t80.5 23t49.5 69t17 113q0 68 -17 113.5t-49.5 68.5t-80.5 23z" />
    <glyph glyph-name="R" unicode="R" horiz-adv-x="689" 
d="M388 660q118 0 183.5 -55.5t65.5 -147.5q0 -101 -65 -154t-183 -53l-16 -9h-131v-241h-169v660h315zM364 363q50 0 75 20t25 64q0 43 -25 63t-75 20h-122v-167h122zM465 327l211 -327h-190l-169 289z" />
    <glyph glyph-name="S" unicode="S" horiz-adv-x="645" 
d="M331 670q92 0 162.5 -28.5t122.5 -83.5l-83 -111q-43 45 -92.5 67.5t-112.5 22.5q-37 0 -60 -8t-33 -22t-10 -32q0 -21 19.5 -35.5t63.5 -24.5l111 -25q99 -23 145 -67t46 -117q0 -70 -36 -118.5t-99 -73t-144 -24.5q-66 0 -126 14.5t-108 41.5t-81 62l83 115
q25 -29 61.5 -51.5t80 -35.5t88.5 -13q35 0 58.5 7t34.5 21t11 33q0 21 -15 35.5t-57 24.5l-122 27q-56 13 -99.5 34.5t-68.5 58t-25 91.5q0 62 34 110.5t98 76.5t153 28z" />
    <glyph glyph-name="T" unicode="T" horiz-adv-x="653" 
d="M628 660v-133h-215v-527h-172v527h-216v133h603z" />
    <glyph glyph-name="U" unicode="U" horiz-adv-x="710" 
d="M650 660v-391q0 -140 -74.5 -209.5t-220.5 -69.5q-145 0 -220 69.5t-75 209.5v391h173v-394q0 -71 30.5 -106t91.5 -35q62 0 92.5 35t30.5 106v394h172z" />
    <glyph glyph-name="V" unicode="V" horiz-adv-x="683" 
d="M677 660l-234 -660h-202l-235 660h181l121 -399l36 -130l35 128l123 401h175z" />
    <glyph glyph-name="W" unicode="W" horiz-adv-x="997" 
d="M200 0l-190 660h183l112 -521l118 521h156l121 -520l110 520h177l-191 -660h-187l-78 320l-30 161h-2l-29 -161l-77 -320h-193z" />
    <glyph glyph-name="X" unicode="X" horiz-adv-x="663" 
d="M655 0h-205l-124 211l-120 -211h-195l224 332l-211 328h203l113 -202l114 202h187l-211 -323z" />
    <glyph glyph-name="Y" unicode="Y" horiz-adv-x="657" 
d="M647 660l-233 -419v-241h-172v241l-233 419h178l93 -181l49 -110l50 110l93 181h175z" />
    <glyph glyph-name="Z" unicode="Z" horiz-adv-x="634" 
d="M172 72l-30 58h461v-130h-566v124l421 464l30 -58h-444v130h547v-124z" />
    <glyph glyph-name="bracketleft" unicode="[" horiz-adv-x="391" 
d="M365 594h-133v-643h133v-119h-280v881h280v-119z" />
    <glyph glyph-name="backslash" unicode="\" horiz-adv-x="468" 
d="M15 712h158l280 -782h-158z" />
    <glyph glyph-name="bracketright" unicode="]" horiz-adv-x="391" 
d="M26 -49h133v643h-133v119h280v-881h-280v119z" />
    <glyph glyph-name="asciicircum" unicode="^" horiz-adv-x="612" 
d="M25 355l209 369h144l210 -369h-150l-132 257l-131 -257h-150z" />
    <glyph glyph-name="underscore" unicode="_" horiz-adv-x="539" 
d="M539 -66v-135h-539v135h539z" />
    <glyph glyph-name="grave" unicode="`" horiz-adv-x="500" 
d="M296 738l67 -173h-124l-101 173h158z" />
    <glyph glyph-name="a" unicode="a" 
d="M340 317q0 35 -19.5 55.5t-52.5 20.5t-56.5 -16.5t-32.5 -58.5l-144 34q14 72 74 115t169 43q73 0 124.5 -21.5t79 -64t27.5 -104.5v-183q0 -39 35 -39q18 0 29 4l-10 -97q-30 -14 -73 -14q-39 0 -69 12.5t-47 38t-17 64.5v6l19 7q0 -43 -25.5 -72t-66 -43t-84.5 -14
q-51 0 -89 16t-58.5 46.5t-20.5 75.5q0 54 32.5 89.5t102.5 49.5l189 39l-1 -90l-96 -20q-30 -6 -44.5 -17.5t-14.5 -34.5q0 -22 16 -33t38 -11q17 0 32.5 5t27.5 15.5t19 26.5t7 38v132z" />
    <glyph glyph-name="b" unicode="b" horiz-adv-x="627" 
d="M382 -10q-49 0 -86.5 22t-61.5 60.5t-31 87.5l16 21l-9 -181h-149v712h170v-369l-16 24q14 62 57 102.5t116 40.5q58 0 103.5 -31t71 -89.5t25.5 -141.5q0 -81 -26 -139t-72 -88.5t-108 -30.5zM323 115q44 0 69 32.5t25 102.5t-25 102.5t-69 32.5q-29 0 -49.5 -16.5
t-31.5 -46.5t-11 -73t11 -73t32 -45.5t49 -15.5z" />
    <glyph glyph-name="c" unicode="c" horiz-adv-x="567" 
d="M298 510q76 0 126.5 -21.5t79 -57t35.5 -76.5l-157 -52q-7 43 -25.5 64.5t-53.5 21.5q-32 0 -53.5 -14.5t-32.5 -46t-11 -80.5t12 -79.5t34 -44t52 -13.5q25 0 41.5 9.5t27.5 27.5t14 44l153 -49q-7 -44 -37.5 -78.5t-80.5 -54.5t-117 -20q-82 0 -143 30.5t-94 89
t-33 140.5t33 140.5t92.5 89t137.5 30.5z" />
    <glyph glyph-name="d" unicode="d" horiz-adv-x="627" 
d="M245 -10q-62 0 -108.5 30.5t-72 88.5t-25.5 139q0 84 26.5 142t74 89t109.5 31q68 0 109.5 -41.5t53.5 -105.5l-16 -21v370h170v-712h-152l-11 170l20 -15q-6 -50 -30.5 -87t-62 -57.5t-85.5 -20.5zM304 115q29 0 49.5 15.5t31.5 46.5t11 76q0 42 -10.5 71.5t-31 45
t-49.5 15.5q-44 0 -69.5 -32.5t-25.5 -102.5t25 -102.5t69 -32.5z" />
    <glyph glyph-name="e" unicode="e" 
d="M305 -10q-83 0 -143.5 31t-93.5 89t-33 140t33 140t92.5 89t136.5 31q79 0 134.5 -30.5t84.5 -84t29 -122.5q0 -18 -1 -36t-3 -30h-396v91h321l-81 -31q0 60 -21.5 92t-66.5 32q-32 0 -54.5 -15t-34 -47t-11.5 -82q0 -49 13 -79.5t37 -44t58 -13.5q38 0 60.5 15t33.5 42
l136 -45q-14 -43 -48.5 -72.5t-82 -44.5t-99.5 -15z" />
    <glyph glyph-name="f" unicode="f" horiz-adv-x="415" 
d="M294 726q41 0 72 -8.5t46 -19.5l-17 -106q-11 7 -25 11t-35 4q-35 0 -57.5 -16t-22.5 -56v-65l10 -28v-442h-170v546q0 48 15.5 82t43.5 56t64 32t76 10zM407 500v-121h-392v121h392z" />
    <glyph glyph-name="g" unicode="g" horiz-adv-x="560" 
d="M545 634l14 -114q-6 2 -12 2.5t-12 0.5q-44 0 -65.5 -21.5t-21.5 -53.5l-60 22q0 41 15 79t46.5 62t79.5 24h7.5t8.5 -1zM373 111q87 0 133.5 -36.5t46.5 -104.5q0 -62 -34 -103t-95.5 -61.5t-145.5 -20.5q-136 0 -196 34t-60 92q0 42 34 68t113 28l-4 -16q-61 8 -91 36
t-30 76t38 78t101 33l62 -29h-16q-39 -2 -55 -13t-16 -27q0 -17 14 -25.5t42 -8.5h159zM279 -105q48 0 79.5 6.5t47.5 18t16 26.5t-11 23.5t-40 8.5h-179q-19 0 -30.5 -10t-11.5 -25q0 -23 34 -35.5t95 -12.5zM285 510q76 0 130 -20t82.5 -57.5t28.5 -92.5q0 -54 -28.5 -92
t-82.5 -57.5t-130 -19.5q-119 0 -180.5 44t-61.5 125q0 55 28.5 92.5t82.5 57.5t131 20zM285 413q-33 0 -53.5 -19t-20.5 -54q0 -34 20.5 -53t53.5 -19q32 0 53 19t21 53q0 35 -21 54t-53 19z" />
    <glyph glyph-name="h" unicode="h" horiz-adv-x="620" 
d="M61 0v712h170v-303q22 50 63 75.5t95 25.5q52 0 90.5 -20t60.5 -59t22 -98v-333h-170v286q0 54 -19.5 74.5t-51.5 20.5q-24 0 -45 -12t-33 -38t-12 -68v-263h-170z" />
    <glyph glyph-name="i" unicode="i" horiz-adv-x="291" 
d="M146 558q-52 0 -75.5 19.5t-23.5 61.5q0 43 23.5 62.5t75.5 19.5q51 0 75 -19.5t24 -62.5q0 -42 -24 -61.5t-75 -19.5zM231 500v-500h-170v500h170z" />
    <glyph glyph-name="j" unicode="j" horiz-adv-x="291" 
d="M146 558q-52 0 -75.5 19.5t-23.5 61.5q0 43 23.5 62.5t75.5 19.5q51 0 75 -19.5t24 -62.5q0 -42 -24 -61.5t-75 -19.5zM231 500v-528q0 -68 -23.5 -109t-66.5 -59.5t-104 -18.5q-40 0 -73 8.5t-58 23.5l24 110q11 -8 27 -13.5t37 -5.5q30 0 48.5 17.5t18.5 61.5v513h170z
" />
    <glyph glyph-name="k" unicode="k" horiz-adv-x="622" 
d="M610 500l-240 -256l-32 -9l-143 -160l-1 174l227 251h189zM231 712v-712h-170v712h170zM396 350l225 -350h-188l-148 250z" />
    <glyph glyph-name="l" unicode="l" horiz-adv-x="327" 
d="M229 712v-542q0 -33 11 -47t37 -14q15 0 25 2t24 6l-11 -102q-18 -11 -47 -18t-57 -7q-80 0 -116 37t-36 121v564h170z" />
    <glyph glyph-name="m" unicode="m" horiz-adv-x="941" 
d="M61 0v500h152l5 -97q24 53 67.5 80t100.5 27q56 0 97 -25t61 -74q16 33 41.5 55t58.5 33t68 11q50 0 88 -19.5t60.5 -59t22.5 -98.5v-333h-170v294q0 48 -18.5 67t-49.5 19q-25 0 -45.5 -12.5t-31.5 -37.5t-11 -63v-267h-170v294q0 48 -19 67t-49 19q-23 0 -43.5 -12
t-32.5 -37.5t-12 -66.5v-264h-170z" />
    <glyph glyph-name="n" unicode="n" horiz-adv-x="620" 
d="M61 0v500h152l9 -172l-19 19q10 54 35.5 90t64 54.5t86.5 18.5q52 0 90.5 -20t60.5 -59t22 -98v-333h-170v288q0 52 -20 72t-51 20q-24 0 -45 -11.5t-33 -36.5t-12 -67v-265h-170z" />
    <glyph glyph-name="o" unicode="o" horiz-adv-x="599" 
d="M299 510q79 0 138.5 -30.5t93 -89t33.5 -140.5t-33.5 -140.5t-93 -89t-138.5 -30.5q-77 0 -137 30.5t-93.5 89t-33.5 140.5t33.5 140.5t93.5 89t137 30.5zM299 389q-29 0 -50 -14t-32 -45t-11 -80t11 -79.5t32 -45t50 -14.5q30 0 51 14.5t32 45t11 79.5t-11 80t-32 45
t-51 14z" />
    <glyph glyph-name="p" unicode="p" horiz-adv-x="627" 
d="M61 -210v710h153l9 -181l-20 21q7 50 31 88t62 60t87 22q62 0 108 -30.5t71.5 -88t25.5 -139.5t-26 -141t-72.5 -90t-108.5 -31q-68 0 -110 40.5t-56 102.5l16 24v-367h-170zM323 115q44 0 69 32.5t25 102.5t-24.5 102.5t-68.5 32.5q-28 0 -49 -15.5t-32.5 -45.5
t-11.5 -74q0 -42 10.5 -72.5t31.5 -46.5t50 -16z" />
    <glyph glyph-name="q" unicode="q" horiz-adv-x="627" 
d="M396 -210v377l18 -22q-6 -46 -29 -81t-58 -54.5t-82 -19.5q-61 0 -107.5 31t-72.5 90t-26 141t26.5 139.5t74 88t108.5 30.5q49 0 86.5 -22t61 -61t28.5 -90l-20 -16l9 179h153v-710h-170zM304 115q29 0 49.5 16t31.5 46.5t11 73.5q0 45 -11 74.5t-31.5 44.5t-48.5 15
q-44 0 -69.5 -32.5t-25.5 -102.5t25 -102.5t69 -32.5z" />
    <glyph glyph-name="r" unicode="r" horiz-adv-x="430" 
d="M61 0v500h150l7 -108q19 56 56.5 87t95.5 31q19 0 32.5 -3t21.5 -8l-17 -140q-10 4 -25.5 6.5t-37.5 2.5q-30 0 -56 -13t-41.5 -38.5t-15.5 -64.5v-252h-170z" />
    <glyph glyph-name="s" unicode="s" horiz-adv-x="533" 
d="M271 -10q-75 0 -139.5 24.5t-106.5 70.5l80 94q25 -32 66.5 -53.5t92.5 -21.5q31 0 51 9t20 28q0 14 -10 22.5t-40 14.5l-70 14q-94 19 -133.5 56.5t-39.5 98.5q0 41 25 78.5t77 61t133 23.5q76 0 134 -22t92 -64l-81 -92q-24 30 -62 47t-76 17q-24 0 -40.5 -4.5
t-24.5 -12.5t-8 -20q0 -13 12.5 -22.5t46.5 -16.5l91 -18q77 -14 111 -51t34 -89q0 -49 -26 -88t-78 -61.5t-131 -22.5z" />
    <glyph glyph-name="t" unicode="t" horiz-adv-x="437" 
d="M270 659v-481q0 -36 17.5 -51.5t48.5 -15.5q24 0 41.5 5.5t31.5 16.5l18 -105q-25 -18 -63 -28t-78 -10q-57 0 -98.5 16t-64 51t-23.5 93v462zM419 500v-121h-405v121h405z" />
    <glyph glyph-name="u" unicode="u" horiz-adv-x="619" 
d="M230 -10q-51 0 -89.5 17.5t-60.5 56.5t-22 102v334h170v-294q0 -48 19 -67t54 -19q18 0 34 6.5t28 20t18.5 35t6.5 50.5v268h170v-500h-152l-5 94q-24 -53 -67 -78.5t-104 -25.5z" />
    <glyph glyph-name="v" unicode="v" horiz-adv-x="561" 
d="M386 500h176l-180 -500h-203l-180 500h179l103 -381z" />
    <glyph glyph-name="w" unicode="w" horiz-adv-x="900" 
d="M716 500h178l-151 -500h-204l-91 307l-88 -307h-203l-152 500h179l84 -369l98 369h168l97 -369z" />
    <glyph glyph-name="x" unicode="x" horiz-adv-x="589" 
d="M208 500l122 -225l56 5l197 -280h-195l-126 228h-59l-191 272h196zM579 500l-189 -270l-63 4l-131 -234h-191l201 282l58 -8l124 226h191z" />
    <glyph glyph-name="y" unicode="y" horiz-adv-x="563" 
d="M564 500l-182 -500q-28 -79 -61 -126t-78 -68t-108 -21q-42 0 -77 9t-61 25l34 115q18 -13 38 -18.5t51 -5.5q29 0 47.5 10t29.5 38l13 31l-58 136l-150 375h187l77 -285l24 -106l28 110l77 281h169z" />
    <glyph glyph-name="z" unicode="z" horiz-adv-x="516" 
d="M35 0v104l199 226l53 53l-79 -2h-171v119h438v-104l-196 -224l-55 -55l88 2h172v-119h-449z" />
    <glyph glyph-name="braceleft" unicode="{" horiz-adv-x="420" 
d="M393 -191q-86 0 -139 16.5t-77 54.5t-24 99v134q0 56 -25.5 80t-86.5 24v110q61 0 86.5 24t25.5 80v135q0 62 24 99t77 54t139 17v-108q-55 0 -79.5 -19.5t-24.5 -61.5v-151q0 -50 -24.5 -80t-72.5 -43q48 -14 72.5 -44t24.5 -80v-150q0 -44 24.5 -63t79.5 -19v-108z" />
    <glyph glyph-name="bar" unicode="|" horiz-adv-x="320" 
d="M235 713v-881h-150v881h150z" />
    <glyph glyph-name="braceright" unicode="}" horiz-adv-x="420" 
d="M27 736q86 0 139 -17t77 -54t24 -99v-135q0 -56 25.5 -80t86.5 -24v-110q-61 0 -86.5 -24t-25.5 -80v-135q0 -61 -24 -98.5t-77 -54t-139 -16.5v108q55 0 79.5 19t24.5 62v151q0 50 25 80t72 43q-47 14 -72 44t-25 80v150q0 43 -24.5 62.5t-79.5 19.5v108z" />
    <glyph glyph-name="asciitilde" unicode="~" horiz-adv-x="597" 
d="M554 425q-5 -95 -45 -144.5t-116 -49.5q-35 0 -59.5 9.5t-42.5 22.5t-33.5 22.5t-34.5 9.5q-21 0 -32 -15t-16 -44h-132q5 95 45 144.5t116 49.5q35 0 59.5 -9.5t42.5 -22.5t34 -22.5t34 -9.5q21 0 32 14.5t16 44.5h132z" />
    <glyph glyph-name="uni00A0" unicode="&#xa0;" horiz-adv-x="286" 
 />
    <glyph glyph-name="exclamdown" unicode="&#xa1;" horiz-adv-x="298" 
d="M61 -160v213l19 232h139l19 -232v-213h-177zM149 341q-44 0 -70 22t-26 62q0 39 26 61t70 22q46 0 71.5 -22t25.5 -61q0 -40 -25.5 -62t-71.5 -22z" />
    <glyph glyph-name="cent" unicode="&#xa2;" horiz-adv-x="575" 
d="M314 -10q-85 0 -146 30.5t-93.5 89t-32.5 140.5t32.5 140.5t92.5 89t141 30.5q75 0 124 -21t76.5 -56.5t37.5 -77.5l-127 -46q-9 46 -35.5 70.5t-68.5 24.5q-57 0 -91 -36.5t-34 -119.5q0 -55 16.5 -88.5t45 -48.5t63.5 -15q31 0 52.5 10.5t35.5 30.5t20 50l125 -43
q-10 -46 -40.5 -80.5t-79.5 -54t-114 -19.5zM256 -100v700h105v-700h-105z" />
    <glyph glyph-name="sterling" unicode="&#xa3;" horiz-adv-x="621" 
d="M52 270v78h431v-78h-431zM152 -10q-51 0 -85.5 24t-34.5 69q0 30 17 50.5t46 31.5t65 11q43 0 74 -7t54.5 -17.5t43.5 -21.5t41.5 -18t49.5 -7q34 0 50 20t15 63l108 -12q6 -56 -10 -97.5t-50.5 -65t-81.5 -23.5q-42 0 -74.5 12t-60 30t-53 36.5t-52 30.5t-57.5 12
q-20 0 -30.5 -7t-10.5 -21t11.5 -21.5t28.5 -7.5q26 0 40 12t19.5 36t5.5 58q0 43 -15 78.5t-48 85.5q-20 33 -32 57.5t-17 47.5t-5 47q0 55 29 99t82.5 69.5t126.5 25.5q94 0 152.5 -43.5t77.5 -131.5l-137 -53q-12 54 -35.5 79.5t-64.5 25.5q-38 0 -62.5 -21t-24.5 -59
q0 -14 4 -28.5t13 -33.5t23 -47q22 -39 35.5 -79.5t13.5 -77.5q0 -39 -11.5 -76.5t-34.5 -68t-57.5 -48.5t-81.5 -18z" />
    <glyph glyph-name="currency" unicode="&#xa4;" horiz-adv-x="646" 
d="M324 537q63 0 110.5 -26.5t74.5 -73t27 -107.5q0 -62 -27 -109t-74.5 -73.5t-110.5 -26.5t-111.5 26.5t-75.5 73.5t-27 109q0 61 27 107.5t75.5 73t111.5 26.5zM324 417q-38 0 -61 -24t-23 -63q0 -40 23 -64t61 -24q37 0 60 24t23 64q0 39 -23 63t-60 24zM134 616
l131 -147l-81 -81l-148 130zM183 271l81 -81l-130 -147l-98 97zM466 267l144 -127l-98 -97l-128 142zM512 616l98 -98l-142 -129l-83 83z" />
    <glyph glyph-name="yen" unicode="&#xa5;" horiz-adv-x="666" 
d="M251 0v121h-191v58h191v66h-191v60h117l60 -4l-218 359h176l94 -197l43 -102h2l44 103l93 196h176l-218 -359l60 4h118v-60h-192v-66h192v-58h-192v-121h-164z" />
    <glyph glyph-name="brokenbar" unicode="&#xa6;" horiz-adv-x="320" 
d="M235 713v-380h-150v380h150zM235 212v-380h-150v380h150z" />
    <glyph glyph-name="section" unicode="&#xa7;" horiz-adv-x="623" 
d="M422 99l-59 82q40 6 65 14.5t37 21.5t12 31q0 23 -19 36.5t-56 20.5l-172 32q-46 9 -78.5 30.5t-49.5 52.5t-17 67q0 55 29 96t82 64t125 23q81 0 135.5 -24.5t95.5 -72.5l-90 -80q-28 34 -66 51t-83 17q-51 0 -74.5 -15.5t-23.5 -39.5q0 -14 7.5 -24.5t28.5 -19
t60 -16.5l99 -18q67 -12 108.5 -32.5t60 -49.5t18.5 -69q0 -50 -21.5 -87t-60.5 -59.5t-93 -31.5zM304 -110q-84 0 -150.5 26t-102.5 72l89 82q24 -34 69 -53.5t98 -19.5q46 0 76 13.5t30 40.5q0 19 -17 29.5t-60 18.5l-152 32q-54 11 -89.5 31t-53.5 51.5t-18 74.5
q0 49 22 81t59.5 52t84.5 30l53 -81q-34 -8 -56 -17t-32.5 -20.5t-10.5 -27.5q0 -23 20 -37t64 -22l155 -29q79 -15 117.5 -51.5t38.5 -98.5q0 -55 -28 -95t-80.5 -61t-125.5 -21z" />
    <glyph glyph-name="dieresis" unicode="&#xa8;" horiz-adv-x="500" 
d="M139 710q41 0 63.5 -20t22.5 -57q0 -36 -22.5 -56.5t-63.5 -20.5q-39 0 -61.5 20.5t-22.5 56.5q0 37 22.5 57t61.5 20zM359 710q40 0 63 -20t23 -57q0 -36 -23 -56.5t-63 -20.5q-39 0 -61.5 20.5t-22.5 56.5q0 37 22.5 57t61.5 20z" />
    <glyph glyph-name="copyright" unicode="&#xa9;" horiz-adv-x="772" 
d="M386 -10q-100 0 -178 43.5t-122 120t-44 176.5q0 101 44 177t122 119.5t178 43.5q101 0 178.5 -43.5t121.5 -119.5t44 -177q0 -100 -44 -176.5t-121.5 -120t-178.5 -43.5zM386 74q77 0 134.5 32.5t90 90.5t32.5 133t-32.5 133t-90 90.5t-134.5 32.5q-76 0 -134 -32.5
t-90.5 -90.5t-32.5 -133t32.5 -133t90.5 -90.5t134 -32.5zM392 138q-91 0 -141 52t-50 139q0 88 50 139.5t141 51.5q68 0 111.5 -30t61.5 -80l-99 -47q-10 23 -27 32t-42 9q-34 0 -54 -19.5t-20 -55.5t20 -55.5t54 -19.5q25 0 44 9.5t29 35.5l94 -45q-24 -60 -64.5 -88
t-107.5 -28z" />
    <glyph glyph-name="ordfeminine" unicode="&#xaa;" horiz-adv-x="438" 
d="M141 306q-55 0 -85 25.5t-30 65.5q0 44 27.5 66t88.5 34l110 22v-51l-61 -15q-23 -5 -33.5 -15t-10.5 -26q0 -15 10.5 -23t26.5 -8q13 0 26 5t21 16.5t8 31.5v95q0 23 -12 35.5t-34 12.5q-21 0 -38 -11.5t-24 -40.5l-102 24q8 51 51 82t117 31q84 0 126 -33.5t42 -101.5
v-115q0 -16 7.5 -23t19.5 -7q14 0 20 3l-9 -67q-11 -6 -24 -9t-32 -3q-41 0 -65.5 21t-24.5 63v19l16 -5q-4 -26 -21 -48.5t-45 -36t-66 -13.5zM34 151v89h365v-89h-365z" />
    <glyph glyph-name="guillemotleft" unicode="&#xab;" horiz-adv-x="585" 
d="M308 461l-121 -196l121 -196h-148l-125 196l125 196h148zM550 461l-121 -196l121 -196h-148l-125 196l125 196h148z" />
    <glyph glyph-name="logicalnot" unicode="&#xac;" horiz-adv-x="604" 
d="M544 314v-217h-137v217h137zM544 386v-122h-484v122h484z" />
    <glyph glyph-name="uni00AD" unicode="&#xad;" horiz-adv-x="528" 
d="M447 337v-139h-366v139h366z" />
    <glyph glyph-name="registered" unicode="&#xae;" horiz-adv-x="772" 
d="M386 -10q-100 0 -178 43.5t-122 120t-44 176.5q0 101 44 177t122 119.5t178 43.5q101 0 178.5 -43.5t121.5 -119.5t44 -177q0 -100 -44 -176.5t-121.5 -120t-178.5 -43.5zM432 151l-75 144l87 23l109 -167h-121zM386 74q77 0 134.5 32.5t90 90.5t32.5 133t-32.5 133
t-90 90.5t-134.5 32.5q-76 0 -134 -32.5t-90.5 -90.5t-32.5 -133t32.5 -133t90.5 -90.5t134 -32.5zM238 151v364h176q38 0 67 -15t46.5 -42t17.5 -62q0 -57 -39 -88.5t-104 -31.5h-62v-125h-102zM340 345h50q24 0 38 10t14 33q0 24 -14 33.5t-38 9.5h-50v-86z" />
    <glyph glyph-name="macron" unicode="&#xaf;" horiz-adv-x="500" 
d="M432 674v-105h-364v105h364z" />
    <glyph glyph-name="degree" unicode="&#xb0;" horiz-adv-x="495" 
d="M248 298q-62 0 -107 23t-70 65t-25 98t25 98t70 65t107 23t107 -23t70 -65t25 -98t-25 -98t-70 -65t-107 -23zM248 407q35 0 56.5 22t21.5 56t-21.5 55.5t-56.5 21.5t-57 -21.5t-22 -55.5t22 -56t57 -22z" />
    <glyph glyph-name="plusminus" unicode="&#xb1;" horiz-adv-x="604" 
d="M364 652v-467h-123v467h123zM553 477v-117h-502v117h502zM553 115v-114h-502v114h502z" />
    <glyph glyph-name="uni00B2" unicode="&#xb2;" horiz-adv-x="392" 
d="M29 333v77q24 14 46 26.5t43 25.5q42 29 68 52t37.5 43t11.5 38q0 21 -11.5 33t-35.5 12q-27 0 -40.5 -19.5t-13.5 -56.5l-119 25q2 67 49.5 106.5t126.5 39.5q63 0 101 -19.5t55.5 -49t17.5 -61.5q0 -25 -11 -48.5t-32.5 -46t-53.5 -44.5q-17 -11 -36.5 -20.5
t-40.5 -17.5v-2q15 2 42 3t49 1h88v-97h-341z" />
    <glyph glyph-name="uni00B3" unicode="&#xb3;" horiz-adv-x="379" 
d="M194 735q72 0 112.5 -29.5t40.5 -83.5q0 -26 -10.5 -46t-29.5 -30.5t-44 -12.5v-3q29 0 49.5 -10t31.5 -28.5t11 -46.5q0 -35 -23 -62t-62 -41.5t-90 -14.5q-72 0 -114.5 28.5t-56.5 78.5l114 35q3 -27 18.5 -40t41.5 -13q24 0 37 11.5t13 31.5q0 21 -14 29t-42 8h-8
t-9 -1v65q4 -1 8 -1h7q25 0 38 10.5t13 30.5q0 21 -11.5 31t-32.5 10q-22 0 -36 -12t-18 -38l-109 32q10 55 57.5 83.5t117.5 28.5z" />
    <glyph glyph-name="acute" unicode="&#xb4;" horiz-adv-x="540" 
d="M225 738h158l-101 -173h-124z" />
    <glyph glyph-name="uni00B5" unicode="&#xb5;" horiz-adv-x="621" 
d="M61 -210v710h170v-291q0 -48 18.5 -68.5t53.5 -20.5q26 0 45.5 12t31 38t11.5 68v262h170v-500h-150l-6 91q-21 -50 -58.5 -75t-85.5 -25q-21 0 -40 5t-34 17l44 62v-285h-170z" />
    <glyph glyph-name="paragraph" unicode="&#xb6;" horiz-adv-x="748" 
d="M297 -100v277q-75 1 -134.5 28.5t-94 81t-34.5 131.5q0 79 36 133t100 81.5t148 27.5h364v-760h-138v630h-108v-630h-139zM294 307v223q-40 0 -67.5 -13.5t-42 -38.5t-14.5 -59q0 -35 14.5 -60t42 -38.5t67.5 -13.5z" />
    <glyph glyph-name="periodcentered" unicode="&#xb7;" horiz-adv-x="274" 
d="M137 444q47 0 73.5 -24t26.5 -67q0 -42 -26.5 -66t-73.5 -24q-46 0 -73 24t-27 66q0 43 27 67t73 24z" />
    <glyph glyph-name="cedilla" unicode="&#xb8;" horiz-adv-x="500" 
d="M178 10l41 27q78 -11 115 -42.5t37 -84.5q0 -56 -37.5 -90.5t-102.5 -34.5q-39 0 -62 8.5t-41 20.5l28 81q12 -7 26 -12.5t34 -5.5q26 0 42 15t16 42q0 23 -21 41t-75 35z" />
    <glyph glyph-name="uni00B9" unicode="&#xb9;" horiz-adv-x="298" 
d="M152 730h104v-397h-123v216q0 12 1 29.5t2 35.5q-24 -18 -53.5 -31t-63.5 -18v101q22 3 48.5 13t50 23.5t34.5 27.5z" />
    <glyph glyph-name="ordmasculine" unicode="&#xba;" horiz-adv-x="422" 
d="M211 306q-82 0 -131.5 47t-49.5 131t49.5 131t131.5 47q83 0 132.5 -47t49.5 -131t-49.5 -131t-132.5 -47zM36 151v89h350v-89h-350zM211 388q30 0 42.5 23t12.5 73t-12.5 73t-42.5 23q-29 0 -42 -23t-13 -73t13 -73t42 -23z" />
    <glyph glyph-name="guillemotright" unicode="&#xbb;" horiz-adv-x="585" 
d="M278 69l120 196l-120 196h147l126 -196l-126 -196h-147zM35 69l121 196l-121 196h148l125 -196l-125 -196h-148z" />
    <glyph glyph-name="onequarter" unicode="&#xbc;" horiz-adv-x="872" 
d="M152 665h104v-397h-123v216q0 12 1 29.5t2 35.5q-24 -18 -53.5 -31t-63.5 -18v101q22 3 48.5 13t50 23.5t34.5 27.5zM125 0l477 661h120l-477 -661h-120zM858 162v-81h-61v-85h-107v85h-201v56l162 257h146v-232h61zM595 162h95v78q0 20 1 41t2 39h-3q-6 -13 -14 -29.5
t-16 -29.5z" />
    <glyph glyph-name="onehalf" unicode="&#xbd;" horiz-adv-x="941" 
d="M152 665h104v-397h-123v216q0 12 1 29.5t2 35.5q-24 -18 -53.5 -31t-63.5 -18v101q22 3 48.5 13t50 23.5t34.5 27.5zM125 0l477 661h120l-477 -661h-120zM578 -4v77q24 14 46 26.5t43 25.5q42 29 68 52t37.5 43t11.5 38q0 21 -11.5 33t-35.5 12q-27 0 -40.5 -19.5
t-13.5 -56.5l-119 25q2 67 49.5 106.5t126.5 39.5q63 0 101 -19.5t55.5 -49t17.5 -61.5q0 -25 -11 -48.5t-32.5 -46t-53.5 -44.5q-17 -11 -36.5 -20.5t-40.5 -17.5v-2q15 2 42 3t49 1h88v-97h-341z" />
    <glyph glyph-name="threequarters" unicode="&#xbe;" horiz-adv-x="954" 
d="M194 670q72 0 112.5 -29.5t40.5 -83.5q0 -26 -10.5 -46t-29.5 -30.5t-44 -12.5v-3q29 0 49.5 -10t31.5 -28.5t11 -46.5q0 -35 -23 -62t-62 -41.5t-90 -14.5q-72 0 -114.5 28.5t-56.5 78.5l114 35q3 -27 18.5 -40t41.5 -13q24 0 37 11.5t13 31.5q0 21 -14 29t-42 8h-8
t-9 -1v65q4 -1 8 -1h7q25 0 38 10.5t13 30.5q0 21 -11.5 31t-32.5 10q-22 0 -36 -12t-18 -38l-109 32q10 55 57.5 83.5t117.5 28.5zM206 0l477 661h120l-477 -661h-120zM940 162v-81h-61v-85h-107v85h-201v56l162 257h146v-232h61zM677 162h95v78q0 20 1 41t2 39h-3
q-6 -13 -14 -29.5t-16 -29.5z" />
    <glyph glyph-name="questiondown" unicode="&#xbf;" horiz-adv-x="605" 
d="M298 -169q-74 0 -132 20.5t-91.5 62t-33.5 103.5t26 100.5t69 58.5t95 25l11 86h149v-153q-64 -5 -100 -17.5t-51 -31.5t-15 -45q0 -23 9 -39t28 -24t48 -8q44 0 69 25.5t31 74.5l164 -56q-12 -53 -45 -94t-89.5 -64.5t-141.5 -23.5zM314 342q-45 0 -70.5 22t-25.5 61
t25.5 61.5t70.5 22.5t70.5 -22.5t25.5 -61.5t-25.5 -61t-70.5 -22z" />
    <glyph glyph-name="Agrave" unicode="&#xc0;" horiz-adv-x="677" 
d="M673 0h-177l-46 149h-226l-47 -149h-173l232 660h206zM256 266h162l-81 267zM347 886l61 -163h-124l-89 163h152z" />
    <glyph glyph-name="Aacute" unicode="&#xc1;" horiz-adv-x="677" 
d="M673 0h-177l-46 149h-226l-47 -149h-173l232 660h206zM256 266h162l-81 267zM327 886h152l-89 -163h-124z" />
    <glyph glyph-name="Acircumflex" unicode="&#xc2;" horiz-adv-x="677" 
d="M673 0h-177l-46 149h-226l-47 -149h-173l232 660h206zM256 266h162l-81 267zM521 723h-118l-65 92l-65 -92h-118l100 163h166z" />
    <glyph glyph-name="Atilde" unicode="&#xc3;" horiz-adv-x="677" 
d="M673 0h-177l-46 149h-226l-47 -149h-173l232 660h206zM256 266h162l-81 267zM536 878q-2 -53 -18.5 -88.5t-44 -53t-60.5 -17.5q-28 0 -48.5 8.5t-35.5 20t-28 20t-28 8.5q-17 0 -26 -14t-12 -42h-96q3 80 39 119.5t92 39.5q27 0 46 -8.5t33 -20t26.5 -20t26.5 -8.5
q18 0 26.5 14t11.5 42h96z" />
    <glyph glyph-name="Adieresis" unicode="&#xc4;" horiz-adv-x="677" 
d="M673 0h-177l-46 149h-226l-47 -149h-173l232 660h206zM256 266h162l-81 267zM227 870q41 0 63.5 -20t22.5 -57q0 -36 -22.5 -56.5t-63.5 -20.5q-39 0 -61.5 20.5t-22.5 56.5q0 37 22.5 57t61.5 20zM447 870q40 0 63 -20t23 -57q0 -36 -23 -56.5t-63 -20.5
q-39 0 -61.5 20.5t-22.5 56.5q0 37 22.5 57t61.5 20z" />
    <glyph glyph-name="Aring" unicode="&#xc5;" horiz-adv-x="677" 
d="M673 0h-177l-46 149h-226l-47 -149h-173l232 660h206zM256 266h162l-81 267zM338 842q63 0 101 -34t38 -91q0 -58 -38 -92t-101 -34t-101.5 34t-38.5 92q0 57 38.5 91t101.5 34zM338 769q-24 0 -39 -14t-15 -38t15 -38.5t39 -14.5t38.5 14.5t14.5 38.5t-14.5 38t-38.5 14
z" />
    <glyph glyph-name="AE" unicode="&#xc6;" horiz-adv-x="924" 
d="M581 127h313v-127h-473v196h-175l-77 -196h-173l283 660h601v-127h-299v-142h229v-120h-229v-144zM283 308h138v230h-42z" />
    <glyph glyph-name="Ccedilla" unicode="&#xc7;" horiz-adv-x="681" 
d="M658 189q-19 -69 -61 -113.5t-100 -65t-128 -20.5q-100 0 -173 40.5t-112 116.5t-39 183t39 183t112 116.5t172 40.5q69 0 127 -19.5t98 -59.5t57 -103l-151 -61q-14 62 -45.5 85t-79.5 23q-47 0 -81.5 -23t-53 -68.5t-18.5 -113.5q0 -67 17 -113t51.5 -69t85.5 -23
q48 0 81.5 26.5t45.5 81.5zM283 10l41 27q78 -11 115 -42.5t37 -84.5q0 -56 -37.5 -90.5t-102.5 -34.5q-39 0 -62 8.5t-41 20.5l28 81q12 -7 26 -12.5t34 -5.5q26 0 42 15t16 42q0 23 -21 41t-75 35z" />
    <glyph glyph-name="Egrave" unicode="&#xc8;" horiz-adv-x="631" 
d="M73 0v660h514v-133h-342v-134h272v-125h-272v-135h355v-133h-527zM341 886l61 -163h-124l-89 163h152z" />
    <glyph glyph-name="Eacute" unicode="&#xc9;" horiz-adv-x="631" 
d="M73 0v660h514v-133h-342v-134h272v-125h-272v-135h355v-133h-527zM313 886h152l-89 -163h-124z" />
    <glyph glyph-name="Ecircumflex" unicode="&#xca;" horiz-adv-x="631" 
d="M73 0v660h514v-133h-342v-134h272v-125h-272v-135h355v-133h-527zM513 723h-118l-65 92l-65 -92h-118l100 163h166z" />
    <glyph glyph-name="Edieresis" unicode="&#xcb;" horiz-adv-x="631" 
d="M73 0v660h514v-133h-342v-134h272v-125h-272v-135h355v-133h-527zM219 870q41 0 63.5 -20t22.5 -57q0 -36 -22.5 -56.5t-63.5 -20.5q-39 0 -61.5 20.5t-22.5 56.5q0 37 22.5 57t61.5 20zM439 870q40 0 63 -20t23 -57q0 -36 -23 -56.5t-63 -20.5q-39 0 -61.5 20.5
t-22.5 56.5q0 37 22.5 57t61.5 20z" />
    <glyph glyph-name="Igrave" unicode="&#xcc;" horiz-adv-x="318" 
d="M245 660v-660h-172v660h172zM166 886l61 -163h-124l-89 163h152z" />
    <glyph glyph-name="Iacute" unicode="&#xcd;" horiz-adv-x="318" 
d="M245 660v-660h-172v660h172zM152 886h152l-89 -163h-124z" />
    <glyph glyph-name="Icircumflex" unicode="&#xce;" horiz-adv-x="318" 
d="M245 660v-660h-172v660h172zM342 723h-118l-65 92l-65 -92h-118l100 163h166z" />
    <glyph glyph-name="Idieresis" unicode="&#xcf;" horiz-adv-x="318" 
d="M56 870q39 0 61.5 -20t22.5 -57q0 -36 -22.5 -56.5t-61.5 -20.5q-38 0 -60 20.5t-22 56.5q0 37 22 57t60 20zM260 870q39 0 61.5 -20t22.5 -57q0 -36 -22.5 -56.5t-61.5 -20.5q-38 0 -60 20.5t-22 56.5q0 37 22 57t60 20zM245 660v-660h-172v660h172z" />
    <glyph glyph-name="Eth" unicode="&#xd0;" horiz-adv-x="741" 
d="M13 270v120h386v-120h-386zM376 660q155 0 238 -86t83 -244t-83 -244t-238 -86h-280v660h280zM359 130q85 0 123 50.5t38 149.5t-38 149.5t-123 50.5h-91v-400h91z" />
    <glyph glyph-name="Ntilde" unicode="&#xd1;" horiz-adv-x="741" 
d="M668 660v-660h-191l-205 357l-50 98h-1l4 -122v-333h-152v660h191l205 -357l50 -98h1l-4 122v333h152zM570 878q-2 -53 -18.5 -88.5t-44 -53t-60.5 -17.5q-28 0 -48.5 8.5t-35.5 20t-28 20t-28 8.5q-17 0 -26 -14t-12 -42h-96q3 80 39 119.5t92 39.5q27 0 46 -8.5t33 -20
t26.5 -20t26.5 -8.5q18 0 26.5 14t11.5 42h96z" />
    <glyph glyph-name="Ograve" unicode="&#xd2;" horiz-adv-x="737" 
d="M369 670q100 0 172.5 -40.5t111.5 -116.5t39 -183t-39 -183t-111.5 -116.5t-172.5 -40.5t-173 40.5t-112 116.5t-39 183t39 183t112 116.5t173 40.5zM369 535q-48 0 -81 -23t-50 -68.5t-17 -113.5q0 -67 17 -113t50 -69t81 -23t80.5 23t49.5 69t17 113q0 68 -17 113.5
t-49.5 68.5t-80.5 23zM376 886l61 -163h-124l-89 163h152z" />
    <glyph glyph-name="Oacute" unicode="&#xd3;" horiz-adv-x="737" 
d="M369 670q100 0 172.5 -40.5t111.5 -116.5t39 -183t-39 -183t-111.5 -116.5t-172.5 -40.5t-173 40.5t-112 116.5t-39 183t39 183t112 116.5t173 40.5zM369 535q-48 0 -81 -23t-50 -68.5t-17 -113.5q0 -67 17 -113t50 -69t81 -23t80.5 23t49.5 69t17 113q0 68 -17 113.5
t-49.5 68.5t-80.5 23zM358 886h152l-89 -163h-124z" />
    <glyph glyph-name="Ocircumflex" unicode="&#xd4;" horiz-adv-x="737" 
d="M369 670q100 0 172.5 -40.5t111.5 -116.5t39 -183t-39 -183t-111.5 -116.5t-172.5 -40.5t-173 40.5t-112 116.5t-39 183t39 183t112 116.5t173 40.5zM369 535q-48 0 -81 -23t-50 -68.5t-17 -113.5q0 -67 17 -113t50 -69t81 -23t80.5 23t49.5 69t17 113q0 68 -17 113.5
t-49.5 68.5t-80.5 23zM552 723h-118l-65 92l-65 -92h-118l100 163h166z" />
    <glyph glyph-name="Otilde" unicode="&#xd5;" horiz-adv-x="737" 
d="M369 670q100 0 172.5 -40.5t111.5 -116.5t39 -183t-39 -183t-111.5 -116.5t-172.5 -40.5t-173 40.5t-112 116.5t-39 183t39 183t112 116.5t173 40.5zM369 535q-48 0 -81 -23t-50 -68.5t-17 -113.5q0 -67 17 -113t50 -69t81 -23t80.5 23t49.5 69t17 113q0 68 -17 113.5
t-49.5 68.5t-80.5 23zM567 878q-2 -53 -18.5 -88.5t-44 -53t-60.5 -17.5q-28 0 -48.5 8.5t-35.5 20t-28 20t-28 8.5q-17 0 -26 -14t-12 -42h-96q3 80 39 119.5t92 39.5q27 0 46 -8.5t33 -20t26.5 -20t26.5 -8.5q18 0 26.5 14t11.5 42h96z" />
    <glyph glyph-name="Odieresis" unicode="&#xd6;" horiz-adv-x="737" 
d="M369 670q100 0 172.5 -40.5t111.5 -116.5t39 -183t-39 -183t-111.5 -116.5t-172.5 -40.5t-173 40.5t-112 116.5t-39 183t39 183t112 116.5t173 40.5zM369 535q-48 0 -81 -23t-50 -68.5t-17 -113.5q0 -67 17 -113t50 -69t81 -23t80.5 23t49.5 69t17 113q0 68 -17 113.5
t-49.5 68.5t-80.5 23zM258 870q41 0 63.5 -20t22.5 -57q0 -36 -22.5 -56.5t-63.5 -20.5q-39 0 -61.5 20.5t-22.5 56.5q0 37 22.5 57t61.5 20zM478 870q40 0 63 -20t23 -57q0 -36 -23 -56.5t-63 -20.5q-39 0 -61.5 20.5t-22.5 56.5q0 37 22.5 57t61.5 20z" />
    <glyph glyph-name="multiply" unicode="&#xd7;" horiz-adv-x="604" 
d="M458 78l92 92l-404 404l-92 -92zM146 78l404 404l-92 92l-404 -404z" />
    <glyph glyph-name="Oslash" unicode="&#xd8;" horiz-adv-x="737" 
d="M252 113l-49 41l269 370l51 -38zM62 -27l124 162l53 -40l-97 -122h-80zM548 515l-53 40l100 126h80zM369 670q100 0 172.5 -40.5t111.5 -116.5t39 -183t-39 -183t-111.5 -116.5t-172.5 -40.5t-173 40.5t-112 116.5t-39 183t39 183t112 116.5t173 40.5zM369 535
q-48 0 -81 -23t-50 -68.5t-17 -113.5q0 -67 17 -113t50 -69t81 -23t80.5 23t49.5 69t17 113q0 68 -17 113.5t-49.5 68.5t-80.5 23z" />
    <glyph glyph-name="Ugrave" unicode="&#xd9;" horiz-adv-x="710" 
d="M650 660v-391q0 -140 -74.5 -209.5t-220.5 -69.5q-145 0 -220 69.5t-75 209.5v391h173v-394q0 -71 30.5 -106t91.5 -35q62 0 92.5 35t30.5 106v394h172zM366 876l61 -163h-124l-89 163h152z" />
    <glyph glyph-name="Uacute" unicode="&#xda;" horiz-adv-x="710" 
d="M650 660v-391q0 -140 -74.5 -209.5t-220.5 -69.5q-145 0 -220 69.5t-75 209.5v391h173v-394q0 -71 30.5 -106t91.5 -35q62 0 92.5 35t30.5 106v394h172zM344 876h152l-89 -163h-124z" />
    <glyph glyph-name="Ucircumflex" unicode="&#xdb;" horiz-adv-x="710" 
d="M650 660v-391q0 -140 -74.5 -209.5t-220.5 -69.5q-145 0 -220 69.5t-75 209.5v391h173v-394q0 -71 30.5 -106t91.5 -35q62 0 92.5 35t30.5 106v394h172zM538 713h-118l-65 92l-65 -92h-118l100 163h166z" />
    <glyph glyph-name="Udieresis" unicode="&#xdc;" horiz-adv-x="710" 
d="M650 660v-391q0 -140 -74.5 -209.5t-220.5 -69.5q-145 0 -220 69.5t-75 209.5v391h173v-394q0 -71 30.5 -106t91.5 -35q62 0 92.5 35t30.5 106v394h172zM244 860q41 0 63.5 -20t22.5 -57q0 -36 -22.5 -56.5t-63.5 -20.5q-39 0 -61.5 20.5t-22.5 56.5q0 37 22.5 57
t61.5 20zM464 860q40 0 63 -20t23 -57q0 -36 -23 -56.5t-63 -20.5q-39 0 -61.5 20.5t-22.5 56.5q0 37 22.5 57t61.5 20z" />
    <glyph glyph-name="Yacute" unicode="&#xdd;" horiz-adv-x="657" 
d="M647 660l-233 -419v-241h-172v241l-233 419h178l93 -181l49 -110l50 110l93 181h175zM317 878h152l-89 -163h-124z" />
    <glyph glyph-name="Thorn" unicode="&#xde;" horiz-adv-x="674" 
d="M374 559q126 0 193.5 -56.5t67.5 -165.5t-67.5 -165.5t-193.5 -56.5h-215v128h196q107 0 107 95q0 48 -27.5 70t-79.5 22h-196v129h215zM245 660v-660h-172v660h172z" />
    <glyph glyph-name="germandbls" unicode="&#xdf;" horiz-adv-x="646" 
d="M437 362q57 0 96 -23t59.5 -62.5t20.5 -89.5q0 -53 -22 -97.5t-68.5 -72t-119.5 -27.5q-45 0 -79.5 9t-54.5 23l28 112q13 -9 30 -15.5t43 -6.5q38 0 60.5 26t22.5 69q0 45 -27 68.5t-77 23.5h-55l17 119h30q45 0 67.5 26.5t22.5 65.5q0 42 -25.5 63t-66.5 21
q-60 0 -84 -35t-24 -111v-448h-170v461q0 80 27.5 137t90 88t166.5 31q82 0 138 -24.5t84.5 -67t28.5 -96.5q0 -41 -18.5 -78.5t-54 -61.5t-86.5 -25v-2z" />
    <glyph glyph-name="agrave" unicode="&#xe0;" 
d="M340 317q0 35 -19.5 55.5t-52.5 20.5t-56.5 -16.5t-32.5 -58.5l-144 34q14 72 74 115t169 43q73 0 124.5 -21.5t79 -64t27.5 -104.5v-183q0 -39 35 -39q18 0 29 4l-10 -97q-30 -14 -73 -14q-39 0 -69 12.5t-47 38t-17 64.5v6l19 7q0 -43 -25.5 -72t-66 -43t-84.5 -14
q-51 0 -89 16t-58.5 46.5t-20.5 75.5q0 54 32.5 89.5t102.5 49.5l189 39l-1 -90l-96 -20q-30 -6 -44.5 -17.5t-14.5 -34.5q0 -22 16 -33t38 -11q17 0 32.5 5t27.5 15.5t19 26.5t7 38v132zM277 738l67 -173h-124l-101 173h158z" />
    <glyph glyph-name="aacute" unicode="&#xe1;" 
d="M340 317q0 35 -19.5 55.5t-52.5 20.5t-56.5 -16.5t-32.5 -58.5l-144 34q14 72 74 115t169 43q73 0 124.5 -21.5t79 -64t27.5 -104.5v-183q0 -39 35 -39q18 0 29 4l-10 -97q-30 -14 -73 -14q-39 0 -69 12.5t-47 38t-17 64.5v6l19 7q0 -43 -25.5 -72t-66 -43t-84.5 -14
q-51 0 -89 16t-58.5 46.5t-20.5 75.5q0 54 32.5 89.5t102.5 49.5l189 39l-1 -90l-96 -20q-30 -6 -44.5 -17.5t-14.5 -34.5q0 -22 16 -33t38 -11q17 0 32.5 5t27.5 15.5t19 26.5t7 38v132zM267 738h158l-101 -173h-124z" />
    <glyph glyph-name="acircumflex" unicode="&#xe2;" 
d="M340 317q0 35 -19.5 55.5t-52.5 20.5t-56.5 -16.5t-32.5 -58.5l-144 34q14 72 74 115t169 43q73 0 124.5 -21.5t79 -64t27.5 -104.5v-183q0 -39 35 -39q18 0 29 4l-10 -97q-30 -14 -73 -14q-39 0 -69 12.5t-47 38t-17 64.5v6l19 7q0 -43 -25.5 -72t-66 -43t-84.5 -14
q-51 0 -89 16t-58.5 46.5t-20.5 75.5q0 54 32.5 89.5t102.5 49.5l189 39l-1 -90l-96 -20q-30 -6 -44.5 -17.5t-14.5 -34.5q0 -22 16 -33t38 -11q17 0 32.5 5t27.5 15.5t19 26.5t7 38v132zM468 559h-122l-69 88l-69 -88h-122l109 173h164z" />
    <glyph glyph-name="atilde" unicode="&#xe3;" 
d="M340 317q0 35 -19.5 55.5t-52.5 20.5t-56.5 -16.5t-32.5 -58.5l-144 34q14 72 74 115t169 43q73 0 124.5 -21.5t79 -64t27.5 -104.5v-183q0 -39 35 -39q18 0 29 4l-10 -97q-30 -14 -73 -14q-39 0 -69 12.5t-47 38t-17 64.5v6l19 7q0 -43 -25.5 -72t-66 -43t-84.5 -14
q-51 0 -89 16t-58.5 46.5t-20.5 75.5q0 54 32.5 89.5t102.5 49.5l189 39l-1 -90l-96 -20q-30 -6 -44.5 -17.5t-14.5 -34.5q0 -22 16 -33t38 -11q17 0 32.5 5t27.5 15.5t19 26.5t7 38v132zM475 718q-2 -53 -18.5 -88.5t-44 -53t-60.5 -17.5q-28 0 -48.5 8.5t-35.5 20t-28 20
t-28 8.5q-17 0 -26 -14t-12 -42h-96q3 80 39 119.5t92 39.5q27 0 46 -8.5t33 -20t26.5 -20t26.5 -8.5q18 0 26.5 14t11.5 42h96z" />
    <glyph glyph-name="adieresis" unicode="&#xe4;" 
d="M340 317q0 35 -19.5 55.5t-52.5 20.5t-56.5 -16.5t-32.5 -58.5l-144 34q14 72 74 115t169 43q73 0 124.5 -21.5t79 -64t27.5 -104.5v-183q0 -39 35 -39q18 0 29 4l-10 -97q-30 -14 -73 -14q-39 0 -69 12.5t-47 38t-17 64.5v6l19 7q0 -43 -25.5 -72t-66 -43t-84.5 -14
q-51 0 -89 16t-58.5 46.5t-20.5 75.5q0 54 32.5 89.5t102.5 49.5l189 39l-1 -90l-96 -20q-30 -6 -44.5 -17.5t-14.5 -34.5q0 -22 16 -33t38 -11q17 0 32.5 5t27.5 15.5t19 26.5t7 38v132zM166 710q41 0 63.5 -20t22.5 -57q0 -36 -22.5 -56.5t-63.5 -20.5q-39 0 -61.5 20.5
t-22.5 56.5q0 37 22.5 57t61.5 20zM386 710q40 0 63 -20t23 -57q0 -36 -23 -56.5t-63 -20.5q-39 0 -61.5 20.5t-22.5 56.5q0 37 22.5 57t61.5 20z" />
    <glyph glyph-name="aring" unicode="&#xe5;" 
d="M340 317q0 35 -19.5 55.5t-52.5 20.5t-56.5 -16.5t-32.5 -58.5l-144 34q14 72 74 115t169 43q73 0 124.5 -21.5t79 -64t27.5 -104.5v-183q0 -39 35 -39q18 0 29 4l-10 -97q-30 -14 -73 -14q-39 0 -69 12.5t-47 38t-17 64.5v6l19 7q0 -43 -25.5 -72t-66 -43t-84.5 -14
q-51 0 -89 16t-58.5 46.5t-20.5 75.5q0 54 32.5 89.5t102.5 49.5l189 39l-1 -90l-96 -20q-30 -6 -44.5 -17.5t-14.5 -34.5q0 -22 16 -33t38 -11q17 0 32.5 5t27.5 15.5t19 26.5t7 38v132zM276 802q63 0 101 -34t38 -91q0 -58 -38 -92t-101 -34t-101.5 34t-38.5 92
q0 57 38.5 91t101.5 34zM276 729q-24 0 -39 -14t-15 -38t15 -38.5t39 -14.5t38.5 14.5t14.5 38.5t-14.5 38t-38.5 14z" />
    <glyph glyph-name="ae" unicode="&#xe6;" horiz-adv-x="878" 
d="M208 -10q-55 0 -94.5 16t-60.5 46.5t-21 75.5q0 55 36.5 91t100.5 49l170 34v13q0 37 -20 57.5t-55 20.5q-30 0 -52.5 -16.5t-32.5 -58.5l-145 34q6 45 36.5 80.5t80.5 56.5t114 21q82 0 134.5 -27.5t65.5 -83.5l-55 -2q20 36 50 61t68 38.5t82 13.5q76 0 128 -30.5
t79 -84t27 -122.5q0 -17 -1 -33.5t-3 -32.5h-337v0q0 -47 33.5 -72t76.5 -25q35 0 54.5 15t30.5 42l137 -45q-14 -43 -46.5 -72.5t-77 -44.5t-96.5 -15q-87 0 -144.5 40t-78.5 118l36 -6q-6 -32 -23 -59.5t-44.5 -48.5t-66 -32.5t-86.5 -11.5zM254 99q17 0 32 5.5t27 17
t19 27.5t7 37v29l-82 -18q-31 -7 -44.5 -18t-13.5 -35q0 -19 14 -32t41 -13zM503 298h180q-1 29 -11.5 50t-29 32t-43.5 11q-40 0 -64 -23t-32 -70z" />
    <glyph glyph-name="ccedilla" unicode="&#xe7;" horiz-adv-x="567" 
d="M298 510q76 0 126.5 -21.5t79 -57t35.5 -76.5l-157 -52q-7 43 -25.5 64.5t-53.5 21.5q-32 0 -53.5 -14.5t-32.5 -46t-11 -80.5t12 -79.5t34 -44t52 -13.5q25 0 41.5 9.5t27.5 27.5t14 44l153 -49q-7 -44 -37.5 -78.5t-80.5 -54.5t-117 -20q-82 0 -143 30.5t-94 89
t-33 140.5t33 140.5t92.5 89t137.5 30.5zM222 10l41 27q78 -11 115 -42.5t37 -84.5q0 -56 -37.5 -90.5t-102.5 -34.5q-39 0 -62 8.5t-41 20.5l28 81q12 -7 26 -12.5t34 -5.5q26 0 42 15t16 42q0 23 -21 41t-75 35z" />
    <glyph glyph-name="egrave" unicode="&#xe8;" 
d="M305 -10q-83 0 -143.5 31t-93.5 89t-33 140t33 140t92.5 89t136.5 31q79 0 134.5 -30.5t84.5 -84t29 -122.5q0 -18 -1 -36t-3 -30h-396v91h321l-81 -31q0 60 -21.5 92t-66.5 32q-32 0 -54.5 -15t-34 -47t-11.5 -82q0 -49 13 -79.5t37 -44t58 -13.5q38 0 60.5 15t33.5 42
l136 -45q-14 -43 -48.5 -72.5t-82 -44.5t-99.5 -15zM294 738l67 -173h-124l-101 173h158z" />
    <glyph glyph-name="eacute" unicode="&#xe9;" 
d="M305 -10q-83 0 -143.5 31t-93.5 89t-33 140t33 140t92.5 89t136.5 31q79 0 134.5 -30.5t84.5 -84t29 -122.5q0 -18 -1 -36t-3 -30h-396v91h321l-81 -31q0 60 -21.5 92t-66.5 32q-32 0 -54.5 -15t-34 -47t-11.5 -82q0 -49 13 -79.5t37 -44t58 -13.5q38 0 60.5 15t33.5 42
l136 -45q-14 -43 -48.5 -72.5t-82 -44.5t-99.5 -15zM284 738h158l-101 -173h-124z" />
    <glyph glyph-name="ecircumflex" unicode="&#xea;" 
d="M305 -10q-83 0 -143.5 31t-93.5 89t-33 140t33 140t92.5 89t136.5 31q79 0 134.5 -30.5t84.5 -84t29 -122.5q0 -18 -1 -36t-3 -30h-396v91h321l-81 -31q0 60 -21.5 92t-66.5 32q-32 0 -54.5 -15t-34 -47t-11.5 -82q0 -49 13 -79.5t37 -44t58 -13.5q38 0 60.5 15t33.5 42
l136 -45q-14 -43 -48.5 -72.5t-82 -44.5t-99.5 -15zM485 559h-122l-69 88l-69 -88h-122l109 173h164z" />
    <glyph glyph-name="edieresis" unicode="&#xeb;" 
d="M305 -10q-83 0 -143.5 31t-93.5 89t-33 140t33 140t92.5 89t136.5 31q79 0 134.5 -30.5t84.5 -84t29 -122.5q0 -18 -1 -36t-3 -30h-396v91h321l-81 -31q0 60 -21.5 92t-66.5 32q-32 0 -54.5 -15t-34 -47t-11.5 -82q0 -49 13 -79.5t37 -44t58 -13.5q38 0 60.5 15t33.5 42
l136 -45q-14 -43 -48.5 -72.5t-82 -44.5t-99.5 -15zM183 710q41 0 63.5 -20t22.5 -57q0 -36 -22.5 -56.5t-63.5 -20.5q-39 0 -61.5 20.5t-22.5 56.5q0 37 22.5 57t61.5 20zM403 710q40 0 63 -20t23 -57q0 -36 -23 -56.5t-63 -20.5q-39 0 -61.5 20.5t-22.5 56.5q0 37 22.5 57
t61.5 20z" />
    <glyph glyph-name="igrave" unicode="&#xec;" horiz-adv-x="291" 
d="M231 500v-500h-170v500h170zM146 738l67 -173h-124l-101 173h158z" />
    <glyph glyph-name="iacute" unicode="&#xed;" horiz-adv-x="291" 
d="M231 500v-500h-170v500h170zM136 738h158l-101 -173h-124z" />
    <glyph glyph-name="icircumflex" unicode="&#xee;" horiz-adv-x="291" 
d="M231 500v-500h-170v500h170zM337 559h-122l-69 88l-69 -88h-122l109 173h164z" />
    <glyph glyph-name="idieresis" unicode="&#xef;" horiz-adv-x="291" 
d="M242 554q-39 0 -60 20.5t-21 58.5q0 39 21 59t60 20t59.5 -20t20.5 -59q0 -38 -20.5 -58.5t-59.5 -20.5zM49 554q-38 0 -59 20.5t-21 58.5q0 39 21 59t59 20q40 0 60.5 -20t20.5 -59q0 -38 -20.5 -58.5t-60.5 -20.5zM231 500v-500h-170v500h170z" />
    <glyph glyph-name="eth" unicode="&#xf0;" horiz-adv-x="604" 
d="M298 -10q-80 0 -137.5 30t-88.5 86.5t-31 136.5t30.5 136.5t84.5 86t123 29.5t108 -31t54 -82l-8 -4q-7 59 -26.5 106t-51 87t-76.5 76.5t-103 74.5h155q45 -24 86 -61.5t73.5 -90t52 -119t19.5 -148.5q0 -100 -33 -170t-92 -106.5t-139 -36.5zM304 111q34 0 55 15.5
t31.5 45t10.5 71.5q0 49 -10.5 79.5t-31.5 45.5t-53 15q-30 0 -51 -15t-31.5 -45.5t-10.5 -79.5q0 -67 23 -99.5t68 -32.5zM192 539l-12 61l177 34l27 -54zM419 586l-23 54l158 33l14 -58z" />
    <glyph glyph-name="ntilde" unicode="&#xf1;" horiz-adv-x="620" 
d="M61 0v500h152l9 -172l-19 19q10 54 35.5 90t64 54.5t86.5 18.5q52 0 90.5 -20t60.5 -59t22 -98v-333h-170v288q0 52 -20 72t-51 20q-24 0 -45 -11.5t-33 -36.5t-12 -67v-265h-170zM511 718q-2 -53 -18.5 -88.5t-44 -53t-60.5 -17.5q-28 0 -48.5 8.5t-35.5 20t-28 20
t-28 8.5q-17 0 -26 -14t-12 -42h-96q3 80 39 119.5t92 39.5q27 0 46 -8.5t33 -20t26.5 -20t26.5 -8.5q18 0 26.5 14t11.5 42h96z" />
    <glyph glyph-name="ograve" unicode="&#xf2;" horiz-adv-x="599" 
d="M299 510q79 0 138.5 -30.5t93 -89t33.5 -140.5t-33.5 -140.5t-93 -89t-138.5 -30.5q-77 0 -137 30.5t-93.5 89t-33.5 140.5t33.5 140.5t93.5 89t137 30.5zM299 389q-29 0 -50 -14t-32 -45t-11 -80t11 -79.5t32 -45t50 -14.5q30 0 51 14.5t32 45t11 79.5t-11 80t-32 45
t-51 14zM299 738l67 -173h-124l-101 173h158z" />
    <glyph glyph-name="oacute" unicode="&#xf3;" horiz-adv-x="599" 
d="M299 510q79 0 138.5 -30.5t93 -89t33.5 -140.5t-33.5 -140.5t-93 -89t-138.5 -30.5q-77 0 -137 30.5t-93.5 89t-33.5 140.5t33.5 140.5t93.5 89t137 30.5zM299 389q-29 0 -50 -14t-32 -45t-11 -80t11 -79.5t32 -45t50 -14.5q30 0 51 14.5t32 45t11 79.5t-11 80t-32 45
t-51 14zM289 738h158l-101 -173h-124z" />
    <glyph glyph-name="ocircumflex" unicode="&#xf4;" horiz-adv-x="599" 
d="M299 510q79 0 138.5 -30.5t93 -89t33.5 -140.5t-33.5 -140.5t-93 -89t-138.5 -30.5q-77 0 -137 30.5t-93.5 89t-33.5 140.5t33.5 140.5t93.5 89t137 30.5zM299 389q-29 0 -50 -14t-32 -45t-11 -80t11 -79.5t32 -45t50 -14.5q30 0 51 14.5t32 45t11 79.5t-11 80t-32 45
t-51 14zM490 559h-122l-69 88l-69 -88h-122l109 173h164z" />
    <glyph glyph-name="otilde" unicode="&#xf5;" horiz-adv-x="599" 
d="M299 510q79 0 138.5 -30.5t93 -89t33.5 -140.5t-33.5 -140.5t-93 -89t-138.5 -30.5q-77 0 -137 30.5t-93.5 89t-33.5 140.5t33.5 140.5t93.5 89t137 30.5zM299 389q-29 0 -50 -14t-32 -45t-11 -80t11 -79.5t32 -45t50 -14.5q30 0 51 14.5t32 45t11 79.5t-11 80t-32 45
t-51 14zM497 718q-2 -53 -18.5 -88.5t-44 -53t-60.5 -17.5q-28 0 -48.5 8.5t-35.5 20t-28 20t-28 8.5q-17 0 -26 -14t-12 -42h-96q3 80 39 119.5t92 39.5q27 0 46 -8.5t33 -20t26.5 -20t26.5 -8.5q18 0 26.5 14t11.5 42h96z" />
    <glyph glyph-name="odieresis" unicode="&#xf6;" horiz-adv-x="599" 
d="M299 510q79 0 138.5 -30.5t93 -89t33.5 -140.5t-33.5 -140.5t-93 -89t-138.5 -30.5q-77 0 -137 30.5t-93.5 89t-33.5 140.5t33.5 140.5t93.5 89t137 30.5zM299 389q-29 0 -50 -14t-32 -45t-11 -80t11 -79.5t32 -45t50 -14.5q30 0 51 14.5t32 45t11 79.5t-11 80t-32 45
t-51 14zM188 710q41 0 63.5 -20t22.5 -57q0 -36 -22.5 -56.5t-63.5 -20.5q-39 0 -61.5 20.5t-22.5 56.5q0 37 22.5 57t61.5 20zM408 710q40 0 63 -20t23 -57q0 -36 -23 -56.5t-63 -20.5q-39 0 -61.5 20.5t-22.5 56.5q0 37 22.5 57t61.5 20z" />
    <glyph glyph-name="divide" unicode="&#xf7;" horiz-adv-x="623" 
d="M564 386v-122h-504v122h504zM311 191q39 0 61.5 -22t22.5 -60t-22.5 -59.5t-61.5 -21.5t-61 21.5t-22 59.5t22 60t61 22zM311 621q39 0 61.5 -22t22.5 -60t-22.5 -59.5t-61.5 -21.5t-61 21.5t-22 59.5t22 60t61 22z" />
    <glyph glyph-name="oslash" unicode="&#xf8;" horiz-adv-x="599" 
d="M299 510q79 0 138.5 -30.5t93 -89t33.5 -140.5t-33.5 -140.5t-93 -89t-138.5 -30.5q-77 0 -137 30.5t-93.5 89t-33.5 140.5t33.5 140.5t93.5 89t137 30.5zM299 389q-29 0 -50 -14t-32 -45t-11 -80t11 -79.5t32 -45t50 -14.5q30 0 51 14.5t32 45t11 79.5t-11 80t-32 45
t-51 14zM44 -25l443 549h67l-443 -549h-67z" />
    <glyph glyph-name="ugrave" unicode="&#xf9;" horiz-adv-x="619" 
d="M230 -10q-51 0 -89.5 17.5t-60.5 56.5t-22 102v334h170v-294q0 -48 19 -67t54 -19q18 0 34 6.5t28 20t18.5 35t6.5 50.5v268h170v-500h-152l-5 94q-24 -53 -67 -78.5t-104 -25.5zM305 734l67 -173h-124l-101 173h158z" />
    <glyph glyph-name="uacute" unicode="&#xfa;" horiz-adv-x="619" 
d="M230 -10q-51 0 -89.5 17.5t-60.5 56.5t-22 102v334h170v-294q0 -48 19 -67t54 -19q18 0 34 6.5t28 20t18.5 35t6.5 50.5v268h170v-500h-152l-5 94q-24 -53 -67 -78.5t-104 -25.5zM295 734h158l-101 -173h-124z" />
    <glyph glyph-name="ucircumflex" unicode="&#xfb;" horiz-adv-x="619" 
d="M230 -10q-51 0 -89.5 17.5t-60.5 56.5t-22 102v334h170v-294q0 -48 19 -67t54 -19q18 0 34 6.5t28 20t18.5 35t6.5 50.5v268h170v-500h-152l-5 94q-24 -53 -67 -78.5t-104 -25.5zM496 555h-122l-69 88l-69 -88h-122l109 173h164z" />
    <glyph glyph-name="udieresis" unicode="&#xfc;" horiz-adv-x="619" 
d="M230 -10q-51 0 -89.5 17.5t-60.5 56.5t-22 102v334h170v-294q0 -48 19 -67t54 -19q18 0 34 6.5t28 20t18.5 35t6.5 50.5v268h170v-500h-152l-5 94q-24 -53 -67 -78.5t-104 -25.5zM194 706q41 0 63.5 -20t22.5 -57q0 -36 -22.5 -56.5t-63.5 -20.5q-39 0 -61.5 20.5
t-22.5 56.5q0 37 22.5 57t61.5 20zM414 706q40 0 63 -20t23 -57q0 -36 -23 -56.5t-63 -20.5q-39 0 -61.5 20.5t-22.5 56.5q0 37 22.5 57t61.5 20z" />
    <glyph glyph-name="yacute" unicode="&#xfd;" horiz-adv-x="563" 
d="M564 500l-182 -500q-28 -79 -61 -126t-78 -68t-108 -21q-42 0 -77 9t-61 25l34 115q18 -13 38 -18.5t51 -5.5q29 0 47.5 10t29.5 38l13 31l-58 136l-150 375h187l77 -285l24 -106l28 110l77 281h169zM287 734h158l-101 -173h-124z" />
    <glyph glyph-name="thorn" unicode="&#xfe;" horiz-adv-x="627" 
d="M61 -210v922h170v-351l-16 6q14 62 57 102.5t116 40.5q58 0 103.5 -31t71 -89.5t25.5 -141.5q0 -80 -26 -138.5t-72.5 -89t-108.5 -30.5q-68 0 -110 40.5t-56 102.5l16 24v-367h-170zM323 115q44 0 69 32.5t25 102.5t-24.5 102.5t-68.5 32.5q-28 0 -49 -15.5t-32.5 -45.5
t-11.5 -74q0 -42 10.5 -72.5t31.5 -46.5t50 -16z" />
    <glyph glyph-name="ydieresis" unicode="&#xff;" horiz-adv-x="563" 
d="M564 500l-182 -500q-28 -79 -61 -126t-78 -68t-108 -21q-42 0 -77 9t-61 25l34 115q18 -13 38 -18.5t51 -5.5q29 0 47.5 10t29.5 38l13 31l-58 136l-150 375h187l77 -285l24 -106l28 110l77 281h169zM186 706q41 0 63.5 -20t22.5 -57q0 -36 -22.5 -56.5t-63.5 -20.5
q-39 0 -61.5 20.5t-22.5 56.5q0 37 22.5 57t61.5 20zM406 706q40 0 63 -20t23 -57q0 -36 -23 -56.5t-63 -20.5q-39 0 -61.5 20.5t-22.5 56.5q0 37 22.5 57t61.5 20z" />
    <glyph glyph-name="Amacron" unicode="&#x100;" horiz-adv-x="677" 
d="M673 0h-177l-46 149h-226l-47 -149h-173l232 660h206zM256 266h162l-81 267zM520 834v-105h-364v105h364z" />
    <glyph glyph-name="amacron" unicode="&#x101;" 
d="M340 317q0 35 -19.5 55.5t-52.5 20.5t-56.5 -16.5t-32.5 -58.5l-144 34q14 72 74 115t169 43q73 0 124.5 -21.5t79 -64t27.5 -104.5v-183q0 -39 35 -39q18 0 29 4l-10 -97q-30 -14 -73 -14q-39 0 -69 12.5t-47 38t-17 64.5v6l19 7q0 -43 -25.5 -72t-66 -43t-84.5 -14
q-51 0 -89 16t-58.5 46.5t-20.5 75.5q0 54 32.5 89.5t102.5 49.5l189 39l-1 -90l-96 -20q-30 -6 -44.5 -17.5t-14.5 -34.5q0 -22 16 -33t38 -11q17 0 32.5 5t27.5 15.5t19 26.5t7 38v132zM459 674v-105h-364v105h364z" />
    <glyph glyph-name="Abreve" unicode="&#x102;" horiz-adv-x="677" 
d="M673 0h-177l-46 149h-226l-47 -149h-173l232 660h206zM256 266h162l-81 267zM507 878q0 -76 -45.5 -119.5t-123.5 -43.5q-77 0 -123 43.5t-46 119.5h109q1 -30 16 -49t44 -19q30 0 44.5 19t15.5 49h109z" />
    <glyph glyph-name="abreve" unicode="&#x103;" 
d="M340 317q0 35 -19.5 55.5t-52.5 20.5t-56.5 -16.5t-32.5 -58.5l-144 34q14 72 74 115t169 43q73 0 124.5 -21.5t79 -64t27.5 -104.5v-183q0 -39 35 -39q18 0 29 4l-10 -97q-30 -14 -73 -14q-39 0 -69 12.5t-47 38t-17 64.5v6l19 7q0 -43 -25.5 -72t-66 -43t-84.5 -14
q-51 0 -89 16t-58.5 46.5t-20.5 75.5q0 54 32.5 89.5t102.5 49.5l189 39l-1 -90l-96 -20q-30 -6 -44.5 -17.5t-14.5 -34.5q0 -22 16 -33t38 -11q17 0 32.5 5t27.5 15.5t19 26.5t7 38v132zM446 718q0 -76 -45.5 -119.5t-123.5 -43.5q-77 0 -123 43.5t-46 119.5h109
q1 -30 16 -49t44 -19q30 0 44.5 19t15.5 49h109z" />
    <glyph glyph-name="Aogonek" unicode="&#x104;" horiz-adv-x="677" 
d="M576 -215q-39 0 -70.5 12.5t-50 37.5t-18.5 63q0 55 43.5 88.5t118.5 45.5l74 -32q-45 -8 -71 -19.5t-36 -25.5t-10 -31q0 -21 14.5 -32.5t40.5 -11.5q11 0 24 2t22 8l22 -82q-20 -13 -45.5 -18t-57.5 -5zM673 0h-177l-46 149h-226l-47 -149h-173l232 660h206zM256 266
h162l-81 267z" />
    <glyph glyph-name="aogonek" unicode="&#x105;" 
d="M474 -221q-35 0 -65.5 12.5t-49 37t-18.5 61.5q0 58 44 91t119 48l61 -23q-45 -17 -68.5 -32t-32.5 -29.5t-9 -28.5q0 -19 13.5 -30.5t35.5 -11.5q11 0 24 2t21 8l17 -86q-17 -10 -40.5 -14.5t-51.5 -4.5zM340 316q0 37 -18.5 57t-53.5 20q-33 0 -56 -16.5t-31 -57.5
l-142 32q12 73 72.5 116t167.5 43q73 0 124.5 -22t78.5 -62.5t27 -98.5v-190q0 -39 38 -39q15 0 25 4l-7 -96q-30 -15 -74 -15q-40 0 -71 12.5t-48.5 38t-17.5 65.5v10l21 -2q-6 -38 -31.5 -66t-63.5 -43.5t-82 -15.5q-49 0 -86 15.5t-57.5 46t-20.5 72.5q0 56 36 91t102 48
l184 37l-1 -75l-96 -21q-33 -7 -48 -21t-15 -37q0 -22 16 -35.5t45 -13.5q16 0 31 4.5t27 14.5t18.5 24.5t6.5 33.5v142z" />
    <glyph glyph-name="Cacute" unicode="&#x106;" horiz-adv-x="681" 
d="M658 189q-19 -69 -61 -113.5t-100 -65t-128 -20.5q-100 0 -173 40.5t-112 116.5t-39 183t39 183t112 116.5t172 40.5q69 0 127 -19.5t98 -59.5t57 -103l-151 -61q-14 62 -45.5 85t-79.5 23q-47 0 -81.5 -23t-53 -68.5t-18.5 -113.5q0 -67 17 -113t51.5 -69t85.5 -23
q48 0 81.5 26.5t45.5 81.5zM351 886h152l-89 -163h-124z" />
    <glyph glyph-name="cacute" unicode="&#x107;" horiz-adv-x="567" 
d="M298 510q76 0 126.5 -21.5t79 -57t35.5 -76.5l-157 -52q-7 43 -25.5 64.5t-53.5 21.5q-32 0 -53.5 -14.5t-32.5 -46t-11 -80.5t12 -79.5t34 -44t52 -13.5q25 0 41.5 9.5t27.5 27.5t14 44l153 -49q-7 -44 -37.5 -78.5t-80.5 -54.5t-117 -20q-82 0 -143 30.5t-94 89
t-33 140.5t33 140.5t92.5 89t137.5 30.5zM285 738h158l-101 -173h-124z" />
    <glyph glyph-name="Ccircumflex" unicode="&#x108;" horiz-adv-x="681" 
d="M658 189q-19 -69 -61 -113.5t-100 -65t-128 -20.5q-100 0 -173 40.5t-112 116.5t-39 183t39 183t112 116.5t172 40.5q69 0 127 -19.5t98 -59.5t57 -103l-151 -61q-14 62 -45.5 85t-79.5 23q-47 0 -81.5 -23t-53 -68.5t-18.5 -113.5q0 -67 17 -113t51.5 -69t85.5 -23
q48 0 81.5 26.5t45.5 81.5zM545 723h-118l-65 92l-65 -92h-118l100 163h166z" />
    <glyph glyph-name="ccircumflex" unicode="&#x109;" horiz-adv-x="567" 
d="M298 510q76 0 126.5 -21.5t79 -57t35.5 -76.5l-157 -52q-7 43 -25.5 64.5t-53.5 21.5q-32 0 -53.5 -14.5t-32.5 -46t-11 -80.5t12 -79.5t34 -44t52 -13.5q25 0 41.5 9.5t27.5 27.5t14 44l153 -49q-7 -44 -37.5 -78.5t-80.5 -54.5t-117 -20q-82 0 -143 30.5t-94 89
t-33 140.5t33 140.5t92.5 89t137.5 30.5zM486 559h-122l-69 88l-69 -88h-122l109 173h164z" />
    <glyph glyph-name="Cdotaccent" unicode="&#x10a;" horiz-adv-x="681" 
d="M658 189q-19 -69 -61 -113.5t-100 -65t-128 -20.5q-100 0 -173 40.5t-112 116.5t-39 183t39 183t112 116.5t172 40.5q69 0 127 -19.5t98 -59.5t57 -103l-151 -61q-14 62 -45.5 85t-79.5 23q-47 0 -81.5 -23t-53 -68.5t-18.5 -113.5q0 -67 17 -113t51.5 -69t85.5 -23
q48 0 81.5 26.5t45.5 81.5zM362 882q46 0 69.5 -20.5t23.5 -59.5t-23.5 -60t-69.5 -21q-44 0 -67.5 21t-23.5 60t23.5 59.5t67.5 20.5z" />
    <glyph glyph-name="cdotaccent" unicode="&#x10b;" horiz-adv-x="567" 
d="M298 510q76 0 126.5 -21.5t79 -57t35.5 -76.5l-157 -52q-7 43 -25.5 64.5t-53.5 21.5q-32 0 -53.5 -14.5t-32.5 -46t-11 -80.5t12 -79.5t34 -44t52 -13.5q25 0 41.5 9.5t27.5 27.5t14 44l153 -49q-7 -44 -37.5 -78.5t-80.5 -54.5t-117 -20q-82 0 -143 30.5t-94 89
t-33 140.5t33 140.5t92.5 89t137.5 30.5zM295 722q46 0 69.5 -20.5t23.5 -59.5t-23.5 -60t-69.5 -21q-44 0 -67.5 21t-23.5 60t23.5 59.5t67.5 20.5z" />
    <glyph glyph-name="Ccaron" unicode="&#x10c;" horiz-adv-x="681" 
d="M658 189q-19 -69 -61 -113.5t-100 -65t-128 -20.5q-100 0 -173 40.5t-112 116.5t-39 183t39 183t112 116.5t172 40.5q69 0 127 -19.5t98 -59.5t57 -103l-151 -61q-14 62 -45.5 85t-79.5 23q-47 0 -81.5 -23t-53 -68.5t-18.5 -113.5q0 -67 17 -113t51.5 -69t85.5 -23
q48 0 81.5 26.5t45.5 81.5zM545 886l-100 -163h-166l-100 163h118l65 -92l65 92h118z" />
    <glyph glyph-name="ccaron" unicode="&#x10d;" horiz-adv-x="567" 
d="M298 510q76 0 126.5 -21.5t79 -57t35.5 -76.5l-157 -52q-7 43 -25.5 64.5t-53.5 21.5q-32 0 -53.5 -14.5t-32.5 -46t-11 -80.5t12 -79.5t34 -44t52 -13.5q25 0 41.5 9.5t27.5 27.5t14 44l153 -49q-7 -44 -37.5 -78.5t-80.5 -54.5t-117 -20q-82 0 -143 30.5t-94 89
t-33 140.5t33 140.5t92.5 89t137.5 30.5zM483 738l-109 -173h-165l-109 173h123l68 -89l69 89h123z" />
    <glyph glyph-name="Dcaron" unicode="&#x10e;" horiz-adv-x="718" 
d="M353 660q155 0 237.5 -86t82.5 -244t-82.5 -244t-237.5 -86h-280v660h280zM336 130q84 0 122.5 50.5t38.5 149.5t-38.5 149.5t-122.5 50.5h-91v-400h91zM528 886l-100 -163h-166l-100 163h118l65 -92l65 92h118z" />
    <glyph glyph-name="dcaron" unicode="&#x10f;" horiz-adv-x="702" 
d="M760 712l-53 -239h-98l21 239h130zM245 -10q-62 0 -108.5 30.5t-72 88.5t-25.5 139q0 84 26.5 142t74 89t109.5 31q68 0 109.5 -41.5t53.5 -105.5l-16 -21v370h170v-712h-152l-11 170l20 -15q-6 -50 -30.5 -87t-62 -57.5t-85.5 -20.5zM304 115q29 0 49.5 15.5t31.5 46.5
t11 76q0 42 -10.5 71.5t-31 45t-49.5 15.5q-44 0 -69.5 -32.5t-25.5 -102.5t25 -102.5t69 -32.5z" />
    <glyph glyph-name="Dcroat" unicode="&#x110;" horiz-adv-x="741" 
d="M13 270v120h386v-120h-386zM376 660q155 0 238 -86t83 -244t-83 -244t-238 -86h-280v660h280zM359 130q85 0 123 50.5t38 149.5t-38 149.5t-123 50.5h-91v-400h91z" />
    <glyph glyph-name="dcroat" unicode="&#x111;" horiz-adv-x="628" 
d="M268 538v97h376v-97h-376zM245 -10q-62 0 -108.5 30.5t-72 88.5t-25.5 139q0 84 26.5 142t74 89t109.5 31q68 0 109.5 -41.5t53.5 -105.5l-16 -21v370h170v-712h-152l-11 170l20 -15q-6 -50 -30.5 -87t-62 -57.5t-85.5 -20.5zM304 115q29 0 49.5 15.5t31.5 46.5t11 76
q0 42 -10.5 71.5t-31 45t-49.5 15.5q-44 0 -69.5 -32.5t-25.5 -102.5t25 -102.5t69 -32.5z" />
    <glyph glyph-name="Emacron" unicode="&#x112;" horiz-adv-x="631" 
d="M73 0v660h514v-133h-342v-134h272v-125h-272v-135h355v-133h-527zM512 834v-105h-364v105h364z" />
    <glyph glyph-name="emacron" unicode="&#x113;" 
d="M305 -10q-83 0 -143.5 31t-93.5 89t-33 140t33 140t92.5 89t136.5 31q79 0 134.5 -30.5t84.5 -84t29 -122.5q0 -18 -1 -36t-3 -30h-396v91h321l-81 -31q0 60 -21.5 92t-66.5 32q-32 0 -54.5 -15t-34 -47t-11.5 -82q0 -49 13 -79.5t37 -44t58 -13.5q38 0 60.5 15t33.5 42
l136 -45q-14 -43 -48.5 -72.5t-82 -44.5t-99.5 -15zM476 674v-105h-364v105h364z" />
    <glyph glyph-name="Ebreve" unicode="&#x114;" horiz-adv-x="631" 
d="M73 0v660h514v-133h-342v-134h272v-125h-272v-135h355v-133h-527zM499 878q0 -76 -45.5 -119.5t-123.5 -43.5q-77 0 -123 43.5t-46 119.5h109q1 -30 16 -49t44 -19q30 0 44.5 19t15.5 49h109z" />
    <glyph glyph-name="ebreve" unicode="&#x115;" 
d="M305 -10q-83 0 -143.5 31t-93.5 89t-33 140t33 140t92.5 89t136.5 31q79 0 134.5 -30.5t84.5 -84t29 -122.5q0 -18 -1 -36t-3 -30h-396v91h321l-81 -31q0 60 -21.5 92t-66.5 32q-32 0 -54.5 -15t-34 -47t-11.5 -82q0 -49 13 -79.5t37 -44t58 -13.5q38 0 60.5 15t33.5 42
l136 -45q-14 -43 -48.5 -72.5t-82 -44.5t-99.5 -15zM463 718q0 -76 -45.5 -119.5t-123.5 -43.5q-77 0 -123 43.5t-46 119.5h109q1 -30 16 -49t44 -19q30 0 44.5 19t15.5 49h109z" />
    <glyph glyph-name="Edotaccent" unicode="&#x116;" horiz-adv-x="631" 
d="M73 0v660h514v-133h-342v-134h272v-125h-272v-135h355v-133h-527zM330 882q46 0 69.5 -20.5t23.5 -59.5t-23.5 -60t-69.5 -21q-44 0 -67.5 21t-23.5 60t23.5 59.5t67.5 20.5z" />
    <glyph glyph-name="edotaccent" unicode="&#x117;" 
d="M305 -10q-83 0 -143.5 31t-93.5 89t-33 140t33 140t92.5 89t136.5 31q79 0 134.5 -30.5t84.5 -84t29 -122.5q0 -18 -1 -36t-3 -30h-396v91h321l-81 -31q0 60 -21.5 92t-66.5 32q-32 0 -54.5 -15t-34 -47t-11.5 -82q0 -49 13 -79.5t37 -44t58 -13.5q38 0 60.5 15t33.5 42
l136 -45q-14 -43 -48.5 -72.5t-82 -44.5t-99.5 -15zM294 722q46 0 69.5 -20.5t23.5 -59.5t-23.5 -60t-69.5 -21q-44 0 -67.5 21t-23.5 60t23.5 59.5t67.5 20.5z" />
    <glyph glyph-name="Eogonek" unicode="&#x118;" horiz-adv-x="631" 
d="M500 -221q-39 0 -70.5 12.5t-50 37t-18.5 61.5q0 57 52 90.5t138 48.5l50 -29q-68 -16 -94.5 -36.5t-26.5 -45.5q0 -21 15 -32.5t40 -11.5q11 0 24 2t22 8l22 -83q-20 -12 -45.5 -17t-57.5 -5zM73 0v660h514v-133h-342v-134h272v-125h-272v-135h355v-133h-527z" />
    <glyph glyph-name="eogonek" unicode="&#x119;" 
d="M305 -10q-83 0 -143.5 31t-93.5 89t-33 140t33 140t92.5 89t136.5 31q79 0 134.5 -30.5t84.5 -84t29 -122.5q0 -18 -1 -36t-3 -30h-396v91h321l-81 -31q0 60 -21.5 92t-66.5 32q-32 0 -54.5 -15t-34 -47t-11.5 -82q0 -49 13 -79.5t37 -44t58 -13.5q38 0 60.5 15t33.5 42
l136 -45q-14 -43 -48.5 -72.5t-82 -44.5t-99.5 -15zM321 -220q-63 0 -98.5 30t-35.5 81q0 59 41.5 92t114.5 46l67 -22q-41 -13 -65.5 -26t-35.5 -27.5t-11 -33.5q0 -21 14.5 -32.5t39.5 -11.5q13 0 25 2.5t21 6.5l17 -85q-19 -11 -41.5 -15.5t-52.5 -4.5z" />
    <glyph glyph-name="Ecaron" unicode="&#x11a;" horiz-adv-x="631" 
d="M73 0v660h514v-133h-342v-134h272v-125h-272v-135h355v-133h-527zM513 886l-100 -163h-166l-100 163h118l65 -92l65 92h118z" />
    <glyph glyph-name="ecaron" unicode="&#x11b;" 
d="M305 -10q-83 0 -143.5 31t-93.5 89t-33 140t33 140t92.5 89t136.5 31q79 0 134.5 -30.5t84.5 -84t29 -122.5q0 -18 -1 -36t-3 -30h-396v91h321l-81 -31q0 60 -21.5 92t-66.5 32q-32 0 -54.5 -15t-34 -47t-11.5 -82q0 -49 13 -79.5t37 -44t58 -13.5q38 0 60.5 15t33.5 42
l136 -45q-14 -43 -48.5 -72.5t-82 -44.5t-99.5 -15zM482 738l-109 -173h-165l-109 173h123l68 -89l69 89h123z" />
    <glyph glyph-name="Gcircumflex" unicode="&#x11c;" horiz-adv-x="723" 
d="M346 -10q-88 0 -156.5 39t-106.5 115t-38 185q0 107 40 183t114.5 117t175.5 41q112 0 181 -40.5t107 -128.5l-159 -63q-13 51 -46 74t-82 23t-84 -23.5t-53 -69t-18 -112.5q0 -70 18.5 -117t55 -69.5t90.5 -22.5q29 0 53 7t42 20.5t28 34t10 48.5v10h-151v115h297v-356
h-117l-13 155l28 -24q-21 -68 -75.5 -104.5t-140.5 -36.5zM551 723h-118l-65 92l-65 -92h-118l100 163h166z" />
    <glyph glyph-name="gcircumflex" unicode="&#x11d;" horiz-adv-x="560" 
d="M98 559l83 173h146l82 -173h-99l-56 96l-57 -96h-99zM552 634l19 -113h-5.5h-5.5q-42 0 -68 -20.5t-26 -64.5l-58 34q1 48 19.5 84.5t50.5 58t72 21.5h1h1zM373 111q87 0 133.5 -36.5t46.5 -104.5q0 -62 -34 -103t-95.5 -61.5t-145.5 -20.5q-136 0 -196 34t-60 92
q0 42 34 68t113 28l-4 -16q-61 8 -91 36t-30 76t38 78t101 33l62 -29h-16q-39 -2 -55 -13t-16 -27q0 -17 14 -25.5t42 -8.5h159zM279 -105q48 0 79.5 6.5t47.5 18t16 26.5t-11 23.5t-40 8.5h-179q-19 0 -30.5 -10t-11.5 -25q0 -23 34 -35.5t95 -12.5zM285 510q76 0 130 -20
t82.5 -57.5t28.5 -92.5q0 -54 -28.5 -92t-82.5 -57.5t-130 -19.5q-119 0 -180.5 44t-61.5 125q0 55 28.5 92.5t82.5 57.5t131 20zM285 413q-33 0 -53.5 -19t-20.5 -54q0 -34 20.5 -53t53.5 -19q32 0 53 19t21 53q0 35 -21 54t-53 19z" />
    <glyph glyph-name="Gbreve" unicode="&#x11e;" horiz-adv-x="723" 
d="M346 -10q-88 0 -156.5 39t-106.5 115t-38 185q0 107 40 183t114.5 117t175.5 41q112 0 181 -40.5t107 -128.5l-159 -63q-13 51 -46 74t-82 23t-84 -23.5t-53 -69t-18 -112.5q0 -70 18.5 -117t55 -69.5t90.5 -22.5q29 0 53 7t42 20.5t28 34t10 48.5v10h-151v115h297v-356
h-117l-13 155l28 -24q-21 -68 -75.5 -104.5t-140.5 -36.5zM537 878q0 -76 -45.5 -119.5t-123.5 -43.5q-77 0 -123 43.5t-46 119.5h109q1 -30 16 -49t44 -19q30 0 44.5 19t15.5 49h109z" />
    <glyph glyph-name="gbreve" unicode="&#x11f;" horiz-adv-x="560" 
d="M552 634l19 -113h-5.5h-5.5q-42 0 -68 -20.5t-26 -64.5l-58 34q1 48 19.5 84.5t50.5 58t72 21.5h1h1zM373 111q87 0 133.5 -36.5t46.5 -104.5q0 -62 -34 -103t-95.5 -61.5t-145.5 -20.5q-136 0 -196 34t-60 92q0 42 34 68t113 28l-4 -16q-61 8 -91 36t-30 76t38 78
t101 33l62 -29h-16q-39 -2 -55 -13t-16 -27q0 -17 14 -25.5t42 -8.5h159zM279 -105q48 0 79.5 6.5t47.5 18t16 26.5t-11 23.5t-40 8.5h-179q-19 0 -30.5 -10t-11.5 -25q0 -23 34 -35.5t95 -12.5zM285 510q76 0 130 -20t82.5 -57.5t28.5 -92.5q0 -54 -28.5 -92t-82.5 -57.5
t-130 -19.5q-119 0 -180.5 44t-61.5 125q0 55 28.5 92.5t82.5 57.5t131 20zM285 413q-33 0 -53.5 -19t-20.5 -54q0 -34 20.5 -53t53.5 -19q32 0 53 19t21 53q0 35 -21 54t-53 19zM453 718q0 -76 -45.5 -119.5t-123.5 -43.5q-77 0 -123 43.5t-46 119.5h110q0 -30 15 -49
t44 -19q30 0 44.5 19t15.5 49h109z" />
    <glyph glyph-name="Gdotaccent" unicode="&#x120;" horiz-adv-x="723" 
d="M346 -10q-88 0 -156.5 39t-106.5 115t-38 185q0 107 40 183t114.5 117t175.5 41q112 0 181 -40.5t107 -128.5l-159 -63q-13 51 -46 74t-82 23t-84 -23.5t-53 -69t-18 -112.5q0 -70 18.5 -117t55 -69.5t90.5 -22.5q29 0 53 7t42 20.5t28 34t10 48.5v10h-151v115h297v-356
h-117l-13 155l28 -24q-21 -68 -75.5 -104.5t-140.5 -36.5zM368 882q46 0 69.5 -20.5t23.5 -59.5t-23.5 -60t-69.5 -21q-44 0 -67.5 21t-23.5 60t23.5 59.5t67.5 20.5z" />
    <glyph glyph-name="gdotaccent" unicode="&#x121;" horiz-adv-x="560" 
d="M545 634l14 -114q-6 2 -12 2.5t-12 0.5q-44 0 -65.5 -21.5t-21.5 -53.5l-60 22q0 41 15 79t46.5 62t79.5 24h7.5t8.5 -1zM373 111q87 0 133.5 -36.5t46.5 -104.5q0 -62 -34 -103t-95.5 -61.5t-145.5 -20.5q-136 0 -196 34t-60 92q0 42 34 68t113 28l-4 -16q-61 8 -91 36
t-30 76t38 78t101 33l62 -29h-16q-39 -2 -55 -13t-16 -27q0 -17 14 -25.5t42 -8.5h159zM279 -105q48 0 79.5 6.5t47.5 18t16 26.5t-11 23.5t-40 8.5h-179q-19 0 -30.5 -10t-11.5 -25q0 -23 34 -35.5t95 -12.5zM285 510q76 0 130 -20t82.5 -57.5t28.5 -92.5q0 -54 -28.5 -92
t-82.5 -57.5t-130 -19.5q-119 0 -180.5 44t-61.5 125q0 55 28.5 92.5t82.5 57.5t131 20zM285 413q-33 0 -53.5 -19t-20.5 -54q0 -34 20.5 -53t53.5 -19q32 0 53 19t21 53q0 35 -21 54t-53 19zM260 722q46 0 69.5 -20.5t23.5 -59.5t-23.5 -60t-69.5 -21q-44 0 -67.5 21
t-23.5 60t23.5 59.5t67.5 20.5z" />
    <glyph glyph-name="uni0122" unicode="&#x122;" horiz-adv-x="723" 
d="M346 -10q-88 0 -156.5 39t-106.5 115t-38 185q0 107 40 183t114.5 117t175.5 41q112 0 181 -40.5t107 -128.5l-159 -63q-13 51 -46 74t-82 23t-84 -23.5t-53 -69t-18 -112.5q0 -70 18.5 -117t55 -69.5t90.5 -22.5q29 0 53 7t42 20.5t28 34t10 48.5v10h-151v115h297v-356
h-117l-13 155l28 -24q-21 -68 -75.5 -104.5t-140.5 -36.5zM475 -60l-71 -181h-110l32 181h149z" />
    <glyph glyph-name="uni0123" unicode="&#x123;" horiz-adv-x="560" 
d="M545 634l14 -114q-6 2 -12 2.5t-12 0.5q-44 0 -65.5 -21.5t-21.5 -53.5l-60 22q0 41 15 79t46.5 62t79.5 24h7.5t8.5 -1zM373 111q87 0 133.5 -36.5t46.5 -104.5q0 -62 -34 -103t-95.5 -61.5t-145.5 -20.5q-136 0 -196 34t-60 92q0 42 34 68t113 28l-4 -16q-61 8 -91 36
t-30 76t38 78t101 33l62 -29h-16q-39 -2 -55 -13t-16 -27q0 -17 14 -25.5t42 -8.5h159zM279 -105q48 0 79.5 6.5t47.5 18t16 26.5t-11 23.5t-40 8.5h-179q-19 0 -30.5 -10t-11.5 -25q0 -23 34 -35.5t95 -12.5zM285 510q76 0 130 -20t82.5 -57.5t28.5 -92.5q0 -54 -28.5 -92
t-82.5 -57.5t-130 -19.5q-119 0 -180.5 44t-61.5 125q0 55 28.5 92.5t82.5 57.5t131 20zM285 413q-33 0 -53.5 -19t-20.5 -54q0 -34 20.5 -53t53.5 -19q32 0 53 19t21 53q0 35 -21 54t-53 19zM383 772l-36 -209h-142l71 209h107z" />
    <glyph glyph-name="Hcircumflex" unicode="&#x124;" horiz-adv-x="742" 
d="M669 660v-660h-172v660h172zM245 660v-660h-172v660h172zM589 399v-133h-432v133h432zM554 723h-118l-65 92l-65 -92h-118l100 163h166z" />
    <glyph glyph-name="hcircumflex" unicode="&#x125;" horiz-adv-x="620" 
d="M61 0v712h170v-303q22 50 63 75.5t95 25.5q52 0 90.5 -20t60.5 -59t22 -98v-333h-170v286q0 54 -19.5 74.5t-51.5 20.5q-24 0 -45 -12t-33 -38t-12 -68v-263h-170zM329 767h-118l-65 92l-65 -92h-118l100 163h166z" />
    <glyph glyph-name="Hbar" unicode="&#x126;" horiz-adv-x="742" 
d="M669 660v-660h-172v660h172zM245 660v-660h-172v660h172zM589 399v-133h-432v133h432zM740 575v-96h-738v96h738z" />
    <glyph glyph-name="hbar" unicode="&#x127;" horiz-adv-x="620" 
d="M-16 635h377v-97h-377v97zM61 0v712h170v-303q22 50 63 75.5t95 25.5q52 0 90.5 -20t60.5 -59t22 -98v-333h-170v286q0 54 -19.5 74.5t-51.5 20.5q-24 0 -45 -12t-33 -38t-12 -68v-263h-170z" />
    <glyph glyph-name="Itilde" unicode="&#x128;" horiz-adv-x="318" 
d="M245 660v-660h-172v660h172zM357 878q-2 -53 -18.5 -88.5t-44 -53t-60.5 -17.5q-28 0 -48.5 8.5t-35.5 20t-28 20t-28 8.5q-17 0 -26 -14t-12 -42h-96q3 80 39 119.5t92 39.5q27 0 46 -8.5t33 -20t26.5 -20t26.5 -8.5q18 0 26.5 14t11.5 42h96z" />
    <glyph glyph-name="itilde" unicode="&#x129;" horiz-adv-x="291" 
d="M231 500v-500h-170v500h170zM344 718q-2 -53 -18.5 -88.5t-44 -53t-60.5 -17.5q-28 0 -48.5 8.5t-35.5 20t-28 20t-28 8.5q-17 0 -26 -14t-12 -42h-96q3 80 39 119.5t92 39.5q27 0 46 -8.5t33 -20t26.5 -20t26.5 -8.5q18 0 26.5 14t11.5 42h96z" />
    <glyph glyph-name="Imacron" unicode="&#x12a;" horiz-adv-x="318" 
d="M300 834v-105h-283v105h283zM245 660v-660h-172v660h172z" />
    <glyph glyph-name="imacron" unicode="&#x12b;" horiz-adv-x="291" 
d="M281 674v-105h-270v105h270zM231 500v-500h-170v500h170z" />
    <glyph glyph-name="Ibreve" unicode="&#x12c;" horiz-adv-x="318" 
d="M245 660v-660h-172v660h172zM328 878q0 -76 -45.5 -119.5t-123.5 -43.5q-77 0 -123 43.5t-46 119.5h109q1 -30 16 -49t44 -19q30 0 44.5 19t15.5 49h109z" />
    <glyph glyph-name="ibreve" unicode="&#x12d;" horiz-adv-x="291" 
d="M231 500v-500h-170v500h170zM315 718q0 -76 -45.5 -119.5t-123.5 -43.5q-77 0 -123 43.5t-46 119.5h109q1 -30 16 -49t44 -19q30 0 44.5 19t15.5 49h109z" />
    <glyph glyph-name="Iogonek" unicode="&#x12e;" horiz-adv-x="318" 
d="M158 -227q-37 0 -70 12t-53 37.5t-20 67.5q0 46 21.5 75.5t58.5 47t84 27.5l66 -40q-53 -21 -79 -41t-26 -47q0 -20 14 -32t39 -12q11 0 23 2.5t20 6.5l23 -82q-20 -12 -44.5 -17t-56.5 -5zM245 660v-660h-172v660h172z" />
    <glyph glyph-name="iogonek" unicode="&#x12f;" horiz-adv-x="291" 
d="M144 -227q-37 0 -70 12t-53.5 37.5t-20.5 67.5q0 46 22 75.5t59 47t83 27.5l67 -40q-53 -21 -79 -41t-26 -47q0 -20 13.5 -32t38.5 -12q12 0 24 2.5t20 6.5l22 -82q-19 -12 -43.5 -17t-56.5 -5zM146 558q-52 0 -75.5 19.5t-23.5 61.5q0 43 23.5 62.5t75.5 19.5
q51 0 75 -19.5t24 -62.5q0 -42 -24 -61.5t-75 -19.5zM231 500v-500h-170v500h170z" />
    <glyph glyph-name="Idotaccent" unicode="&#x130;" horiz-adv-x="318" 
d="M245 660v-660h-172v660h172zM159 882q46 0 69.5 -20.5t23.5 -59.5t-23.5 -60t-69.5 -21q-44 0 -67.5 21t-23.5 60t23.5 59.5t67.5 20.5z" />
    <glyph glyph-name="dotlessi" unicode="&#x131;" horiz-adv-x="291" 
d="M231 500v-500h-170v500h170z" />
    <glyph glyph-name="IJ" unicode="&#x132;" horiz-adv-x="936" 
d="M245 660v-660h-172v660h172zM875 660v-406q0 -125 -72 -194.5t-204 -69.5q-97 0 -156 34.5t-81 96t-9 140.5l168 30q-12 -91 8.5 -128.5t75.5 -37.5q54 0 76 36t22 111v388h172z" />
    <glyph glyph-name="ij" unicode="&#x133;" horiz-adv-x="582" 
d="M146 558q-52 0 -75.5 19.5t-23.5 61.5q0 43 23.5 62.5t75.5 19.5q51 0 75 -19.5t24 -62.5q0 -42 -24 -61.5t-75 -19.5zM231 500v-500h-170v500h170zM437 558q-52 0 -75.5 19.5t-23.5 61.5q0 43 23.5 62.5t75.5 19.5q51 0 75 -19.5t24 -62.5q0 -42 -24 -61.5t-75 -19.5z
M522 500v-528q0 -68 -23.5 -109t-66.5 -59.5t-104 -18.5q-40 0 -73 8.5t-58 23.5l24 110q11 -8 27 -13.5t37 -5.5q30 0 48.5 17.5t18.5 61.5v513h170z" />
    <glyph glyph-name="Jcircumflex" unicode="&#x134;" horiz-adv-x="618" 
d="M557 660v-406q0 -125 -72 -194.5t-204 -69.5q-97 0 -156 34.5t-81 96t-9 140.5l168 30q-12 -91 8.5 -128.5t75.5 -37.5q54 0 76 36t22 111v388h172zM654 723h-118l-65 92l-65 -92h-118l100 163h166z" />
    <glyph glyph-name="jcircumflex" unicode="&#x135;" horiz-adv-x="291" 
d="M231 500v-528q0 -68 -23.5 -109t-66.5 -59.5t-104 -18.5q-40 0 -73 8.5t-58 23.5l24 110q11 -8 27 -13.5t37 -5.5q30 0 48.5 17.5t18.5 61.5v513h170zM337 559h-122l-69 88l-69 -88h-122l109 173h164z" />
    <glyph glyph-name="uni0136" unicode="&#x136;" horiz-adv-x="693" 
d="M672 660l-310 -371l-11 26l-157 -191l-33 139l320 397h191zM245 660v-660h-172v660h172zM418 442l266 -442h-195l-200 346zM449 -60l-71 -181h-110l32 181h149z" />
    <glyph glyph-name="uni0137" unicode="&#x137;" horiz-adv-x="622" 
d="M610 500l-240 -256l-32 -9l-143 -160l-1 174l227 251h189zM231 712v-712h-170v712h170zM396 350l225 -350h-188l-148 250zM414 -60l-71 -181h-110l32 181h149z" />
    <glyph glyph-name="kgreenlandic" unicode="&#x138;" horiz-adv-x="622" 
d="M610 500l-240 -256l-32 -9l-143 -160l-1 174l228 251h188zM231 500v-500h-170v500h170zM396 350l225 -350h-188l-148 250z" />
    <glyph glyph-name="Lacute" unicode="&#x139;" horiz-adv-x="602" 
d="M245 133h331v-133h-503v660h172v-527zM148 886h152l-89 -163h-124z" />
    <glyph glyph-name="lacute" unicode="&#x13a;" horiz-adv-x="327" 
d="M229 712v-542q0 -33 11 -47t37 -14q15 0 25 2t24 6l-11 -102q-18 -11 -47 -18t-57 -7q-80 0 -116 37t-36 121v564h170zM61 768l56 152h151l-84 -152h-123z" />
    <glyph glyph-name="uni013B" unicode="&#x13b;" horiz-adv-x="602" 
d="M245 133h331v-133h-503v660h172v-527zM422 -60l-71 -181h-110l32 181h149z" />
    <glyph glyph-name="uni013C" unicode="&#x13c;" horiz-adv-x="327" 
d="M229 712v-542q0 -33 11 -47t37 -14q15 0 25 2t24 6l-11 -102q-18 -11 -47 -18t-57 -7q-80 0 -116 37t-36 121v564h170zM281 -60l-71 -181h-110l32 181h149z" />
    <glyph glyph-name="Lcaron" unicode="&#x13d;" horiz-adv-x="602" 
d="M534 660l-60 -239h-113l24 239h149zM245 133h331v-133h-503v660h172v-527z" />
    <glyph glyph-name="lcaron" unicode="&#x13e;" horiz-adv-x="391" 
d="M418 712l-53 -239h-98l22 239h129zM229 712v-542q0 -33 11 -47t37 -14q15 0 25 2t24 6l-11 -102q-18 -11 -47 -18t-57 -7q-80 0 -116 37t-36 121v564h170z" />
    <glyph glyph-name="Ldot" unicode="&#x13f;" horiz-adv-x="644" 
d="M245 133h331v-133h-503v660h172v-527zM486 467q47 0 73.5 -24t26.5 -67q0 -42 -26.5 -66t-73.5 -24q-46 0 -73 24t-27 66q0 43 27 67t73 24z" />
    <glyph glyph-name="ldot" unicode="&#x140;" horiz-adv-x="497" 
d="M229 712v-542q0 -33 11 -47t37 -14q15 0 25 2t24 6l-11 -102q-18 -11 -47 -18t-57 -7q-80 0 -116 37t-36 121v564h170zM394 448q47 0 73.5 -24t26.5 -67q0 -42 -26.5 -66t-73.5 -24q-46 0 -73 24t-27 66q0 43 27 67t73 24z" />
    <glyph glyph-name="Lslash" unicode="&#x141;" horiz-adv-x="668" 
d="M481 507v-125l-452 -216v125zM311 133h331v-133h-503v660h172v-527z" />
    <glyph glyph-name="lslash" unicode="&#x142;" horiz-adv-x="407" 
d="M382 509v-119l-134 -83l-59 -24l-167 -99v119l141 82l58 21zM278 712v-542q0 -33 11 -47t37 -14q15 0 25 2t24 6l-11 -102q-18 -11 -47 -18t-57 -7q-80 0 -116 37t-36 121v564h170z" />
    <glyph glyph-name="Nacute" unicode="&#x143;" horiz-adv-x="741" 
d="M668 660v-660h-191l-205 357l-50 98h-1l4 -122v-333h-152v660h191l205 -357l50 -98h1l-4 122v333h152zM361 886h152l-89 -163h-124z" />
    <glyph glyph-name="nacute" unicode="&#x144;" horiz-adv-x="620" 
d="M61 0v500h152l9 -172l-19 19q10 54 35.5 90t64 54.5t86.5 18.5q52 0 90.5 -20t60.5 -59t22 -98v-333h-170v288q0 52 -20 72t-51 20q-24 0 -45 -11.5t-33 -36.5t-12 -67v-265h-170zM303 738h158l-101 -173h-124z" />
    <glyph glyph-name="uni0145" unicode="&#x145;" horiz-adv-x="741" 
d="M668 660v-660h-191l-205 357l-50 98h-1l4 -122v-333h-152v660h191l205 -357l50 -98h1l-4 122v333h152zM469 -60l-71 -181h-110l32 181h149z" />
    <glyph glyph-name="uni0146" unicode="&#x146;" horiz-adv-x="620" 
d="M61 0v500h152l9 -172l-19 19q10 54 35.5 90t64 54.5t86.5 18.5q52 0 90.5 -20t60.5 -59t22 -98v-333h-170v288q0 52 -20 72t-51 20q-24 0 -45 -11.5t-33 -36.5t-12 -67v-265h-170zM405 -60l-71 -181h-110l32 181h149z" />
    <glyph glyph-name="Ncaron" unicode="&#x147;" horiz-adv-x="741" 
d="M668 660v-660h-191l-205 357l-50 98h-1l4 -122v-333h-152v660h191l205 -357l50 -98h1l-4 122v333h152zM555 886l-100 -163h-166l-100 163h118l65 -92l65 92h118z" />
    <glyph glyph-name="ncaron" unicode="&#x148;" horiz-adv-x="620" 
d="M61 0v500h152l9 -172l-19 19q10 54 35.5 90t64 54.5t86.5 18.5q52 0 90.5 -20t60.5 -59t22 -98v-333h-170v288q0 52 -20 72t-51 20q-24 0 -45 -11.5t-33 -36.5t-12 -67v-265h-170zM501 738l-109 -173h-165l-109 173h123l68 -89l69 89h123z" />
    <glyph glyph-name="Eng" unicode="&#x14a;" horiz-adv-x="741" 
d="M488 -215q-38 0 -68.5 7t-54.5 20l21 119q12 -9 29.5 -15t39.5 -6q28 0 44.5 17.5t16.5 59.5v18l-242 359l-52 93h-1l4 -124v-333h-152v660h191l205 -315l47 -87h1l-1 402h152v-688q0 -68 -22.5 -109t-62.5 -59.5t-95 -18.5z" />
    <glyph glyph-name="eng" unicode="&#x14b;" horiz-adv-x="620" 
d="M562 182v-198q0 -74 -23.5 -117.5t-66 -62.5t-99.5 -19q-45 0 -78 8.5t-58 23.5l24 110q11 -8 27 -13.5t37 -5.5q30 0 48.5 17.5t18.5 61.5v195h170zM61 0v500h152l9 -172l-19 19q10 54 35.5 90t64 54.5t86.5 18.5q52 0 90.5 -20t60.5 -59t22 -98v-333h-170v288
q0 52 -20 72t-51 20q-24 0 -45 -11.5t-33 -36.5t-12 -67v-265h-170z" />
    <glyph glyph-name="Omacron" unicode="&#x14c;" horiz-adv-x="737" 
d="M369 670q100 0 172.5 -40.5t111.5 -116.5t39 -183t-39 -183t-111.5 -116.5t-172.5 -40.5t-173 40.5t-112 116.5t-39 183t39 183t112 116.5t173 40.5zM369 535q-48 0 -81 -23t-50 -68.5t-17 -113.5q0 -67 17 -113t50 -69t81 -23t80.5 23t49.5 69t17 113q0 68 -17 113.5
t-49.5 68.5t-80.5 23zM551 834v-105h-364v105h364z" />
    <glyph glyph-name="omacron" unicode="&#x14d;" horiz-adv-x="599" 
d="M299 510q79 0 138.5 -30.5t93 -89t33.5 -140.5t-33.5 -140.5t-93 -89t-138.5 -30.5q-77 0 -137 30.5t-93.5 89t-33.5 140.5t33.5 140.5t93.5 89t137 30.5zM299 389q-29 0 -50 -14t-32 -45t-11 -80t11 -79.5t32 -45t50 -14.5q30 0 51 14.5t32 45t11 79.5t-11 80t-32 45
t-51 14zM481 674v-105h-364v105h364z" />
    <glyph glyph-name="Obreve" unicode="&#x14e;" horiz-adv-x="737" 
d="M369 670q100 0 172.5 -40.5t111.5 -116.5t39 -183t-39 -183t-111.5 -116.5t-172.5 -40.5t-173 40.5t-112 116.5t-39 183t39 183t112 116.5t173 40.5zM369 535q-48 0 -81 -23t-50 -68.5t-17 -113.5q0 -67 17 -113t50 -69t81 -23t80.5 23t49.5 69t17 113q0 68 -17 113.5
t-49.5 68.5t-80.5 23zM538 878q0 -76 -45.5 -119.5t-123.5 -43.5q-77 0 -123 43.5t-46 119.5h109q1 -30 16 -49t44 -19q30 0 44.5 19t15.5 49h109z" />
    <glyph glyph-name="obreve" unicode="&#x14f;" horiz-adv-x="599" 
d="M299 510q79 0 138.5 -30.5t93 -89t33.5 -140.5t-33.5 -140.5t-93 -89t-138.5 -30.5q-77 0 -137 30.5t-93.5 89t-33.5 140.5t33.5 140.5t93.5 89t137 30.5zM299 389q-29 0 -50 -14t-32 -45t-11 -80t11 -79.5t32 -45t50 -14.5q30 0 51 14.5t32 45t11 79.5t-11 80t-32 45
t-51 14zM468 718q0 -76 -45.5 -119.5t-123.5 -43.5q-77 0 -123 43.5t-46 119.5h109q1 -30 16 -49t44 -19q30 0 44.5 19t15.5 49h109z" />
    <glyph glyph-name="Ohungarumlaut" unicode="&#x150;" horiz-adv-x="737" 
d="M369 670q100 0 172.5 -40.5t111.5 -116.5t39 -183t-39 -183t-111.5 -116.5t-172.5 -40.5t-173 40.5t-112 116.5t-39 183t39 183t112 116.5t173 40.5zM369 535q-48 0 -81 -23t-50 -68.5t-17 -113.5q0 -67 17 -113t50 -69t81 -23t80.5 23t49.5 69t17 113q0 68 -17 113.5
t-49.5 68.5t-80.5 23zM474 886h152l-89 -163h-124zM251 886h152l-89 -163h-124z" />
    <glyph glyph-name="ohungarumlaut" unicode="&#x151;" horiz-adv-x="599" 
d="M299 510q79 0 138.5 -30.5t93 -89t33.5 -140.5t-33.5 -140.5t-93 -89t-138.5 -30.5q-77 0 -137 30.5t-93.5 89t-33.5 140.5t33.5 140.5t93.5 89t137 30.5zM299 389q-29 0 -50 -14t-32 -45t-11 -80t11 -79.5t32 -45t50 -14.5q30 0 51 14.5t32 45t11 79.5t-11 80t-32 45
t-51 14zM333 565l69 173h144l-95 -173h-118zM121 565l69 173h144l-95 -173h-118z" />
    <glyph glyph-name="OE" unicode="&#x152;" horiz-adv-x="1048" 
d="M675 133h343v-133h-458v79q-37 -42 -88.5 -65.5t-117.5 -23.5q-95 0 -164.5 40.5t-107 116.5t-37.5 183t37.5 183t107.5 116.5t166 40.5q65 0 116.5 -23.5t87.5 -64.5v78h445v-133h-330v-134h259v-125h-259v-135zM363 125q46 0 77.5 23t48.5 69t17 113q0 68 -17 113.5
t-48.5 68.5t-77.5 23q-47 0 -79.5 -23t-49 -68.5t-16.5 -113.5q0 -67 16.5 -113t49 -69t79.5 -23z" />
    <glyph glyph-name="oe" unicode="&#x153;" horiz-adv-x="943" 
d="M291 -10q-71 0 -129.5 30.5t-92.5 89t-34 140.5t34 140.5t92.5 89t129.5 30.5q76 0 131.5 -32.5t83.5 -96.5l-51 -1q28 64 82 97t130 33q75 0 129 -30.5t83.5 -84t29.5 -122.5q0 -17 -1.5 -32.5t-3.5 -26.5h-395v80h239q-3 47 -25.5 72t-61.5 25q-33 0 -55 -15t-33.5 -47
t-11.5 -81q0 -50 13 -80.5t37 -44t58 -13.5q38 0 60.5 15t33.5 42l136 -45q-14 -43 -48 -72.5t-81 -44.5t-100 -15q-77 0 -132 32.5t-82 94.5h50q-27 -62 -82.5 -94.5t-132.5 -32.5zM299 111q30 0 51 14.5t32 45t11 79.5t-11 80t-32 45t-51 14q-29 0 -50 -14t-32 -45
t-11 -80t11 -79.5t32 -45t50 -14.5z" />
    <glyph glyph-name="Racute" unicode="&#x154;" horiz-adv-x="689" 
d="M388 660q118 0 183.5 -55.5t65.5 -147.5q0 -101 -65 -154t-183 -53l-16 -9h-131v-241h-169v660h315zM364 363q50 0 75 20t25 64q0 43 -25 63t-75 20h-122v-167h122zM465 327l211 -327h-190l-169 289zM318 886h152l-89 -163h-124z" />
    <glyph glyph-name="racute" unicode="&#x155;" horiz-adv-x="430" 
d="M61 0v500h150l7 -108q19 56 56.5 87t95.5 31q19 0 32.5 -3t21.5 -8l-17 -140q-10 4 -25.5 6.5t-37.5 2.5q-30 0 -56 -13t-41.5 -38.5t-15.5 -64.5v-252h-170zM233 738h158l-101 -173h-124z" />
    <glyph glyph-name="uni0156" unicode="&#x156;" horiz-adv-x="689" 
d="M388 660q118 0 183.5 -55.5t65.5 -147.5q0 -101 -65 -154t-183 -53l-16 -9h-131v-241h-169v660h315zM364 363q50 0 75 20t25 64q0 43 -25 63t-75 20h-122v-167h122zM465 327l211 -327h-190l-169 289zM449 -60l-71 -181h-110l32 181h149z" />
    <glyph glyph-name="uni0157" unicode="&#x157;" horiz-adv-x="430" 
d="M61 0v500h150l7 -108q19 56 56.5 87t95.5 31q19 0 32.5 -3t21.5 -8l-17 -140q-10 4 -25.5 6.5t-37.5 2.5q-30 0 -56 -13t-41.5 -38.5t-15.5 -64.5v-252h-170zM232 -60l-71 -181h-110l32 181h149z" />
    <glyph glyph-name="Rcaron" unicode="&#x158;" horiz-adv-x="689" 
d="M388 660q118 0 183.5 -55.5t65.5 -147.5q0 -101 -65 -154t-183 -53l-16 -9h-131v-241h-169v660h315zM364 363q50 0 75 20t25 64q0 43 -25 63t-75 20h-122v-167h122zM465 327l211 -327h-190l-169 289zM512 886l-100 -163h-166l-100 163h118l65 -92l65 92h118z" />
    <glyph glyph-name="rcaron" unicode="&#x159;" horiz-adv-x="430" 
d="M61 0v500h150l7 -108q19 56 56.5 87t95.5 31q19 0 32.5 -3t21.5 -8l-17 -140q-10 4 -25.5 6.5t-37.5 2.5q-30 0 -56 -13t-41.5 -38.5t-15.5 -64.5v-252h-170zM431 738l-109 -173h-165l-109 173h123l68 -89l69 89h123z" />
    <glyph glyph-name="Sacute" unicode="&#x15a;" horiz-adv-x="645" 
d="M331 670q92 0 162.5 -28.5t122.5 -83.5l-83 -111q-43 45 -92.5 67.5t-112.5 22.5q-37 0 -60 -8t-33 -22t-10 -32q0 -21 19.5 -35.5t63.5 -24.5l111 -25q99 -23 145 -67t46 -117q0 -70 -36 -118.5t-99 -73t-144 -24.5q-66 0 -126 14.5t-108 41.5t-81 62l83 115
q25 -29 61.5 -51.5t80 -35.5t88.5 -13q35 0 58.5 7t34.5 21t11 33q0 21 -15 35.5t-57 24.5l-122 27q-56 13 -99.5 34.5t-68.5 58t-25 91.5q0 62 34 110.5t98 76.5t153 28zM318 886h152l-89 -163h-124z" />
    <glyph glyph-name="sacute" unicode="&#x15b;" horiz-adv-x="534" 
d="M271 -10q-75 0 -139.5 24.5t-106.5 70.5l80 94q25 -32 66.5 -53.5t92.5 -21.5q31 0 51 9t20 28q0 14 -10 22.5t-40 14.5l-70 14q-94 19 -133.5 56.5t-39.5 98.5q0 41 25 78.5t77 61t133 23.5q76 0 134 -22t92 -64l-81 -92q-24 30 -62 47t-76 17q-24 0 -40.5 -4.5
t-24.5 -12.5t-8 -20q0 -13 12.5 -22.5t46.5 -16.5l91 -18q77 -14 111 -51t34 -89q0 -49 -26 -88t-78 -61.5t-131 -22.5zM264 738h158l-101 -173h-124z" />
    <glyph glyph-name="Scircumflex" unicode="&#x15c;" horiz-adv-x="645" 
d="M331 670q92 0 162.5 -28.5t122.5 -83.5l-83 -111q-43 45 -92.5 67.5t-112.5 22.5q-37 0 -60 -8t-33 -22t-10 -32q0 -21 19.5 -35.5t63.5 -24.5l111 -25q99 -23 145 -67t46 -117q0 -70 -36 -118.5t-99 -73t-144 -24.5q-66 0 -126 14.5t-108 41.5t-81 62l83 115
q25 -29 61.5 -51.5t80 -35.5t88.5 -13q35 0 58.5 7t34.5 21t11 33q0 21 -15 35.5t-57 24.5l-122 27q-56 13 -99.5 34.5t-68.5 58t-25 91.5q0 62 34 110.5t98 76.5t153 28zM512 723h-118l-65 92l-65 -92h-118l100 163h166z" />
    <glyph glyph-name="scircumflex" unicode="&#x15d;" horiz-adv-x="534" 
d="M271 -10q-75 0 -139.5 24.5t-106.5 70.5l80 94q25 -32 66.5 -53.5t92.5 -21.5q31 0 51 9t20 28q0 14 -10 22.5t-40 14.5l-70 14q-94 19 -133.5 56.5t-39.5 98.5q0 41 25 78.5t77 61t133 23.5q76 0 134 -22t92 -64l-81 -92q-24 30 -62 47t-76 17q-24 0 -40.5 -4.5
t-24.5 -12.5t-8 -20q0 -13 12.5 -22.5t46.5 -16.5l91 -18q77 -14 111 -51t34 -89q0 -49 -26 -88t-78 -61.5t-131 -22.5zM465 559h-122l-69 88l-69 -88h-122l109 173h164z" />
    <glyph glyph-name="Scedilla" unicode="&#x15e;" horiz-adv-x="645" 
d="M331 670q92 0 162.5 -28.5t122.5 -83.5l-83 -111q-43 45 -92.5 67.5t-112.5 22.5q-37 0 -60 -8t-33 -22t-10 -32q0 -21 19.5 -35.5t63.5 -24.5l111 -25q99 -23 145 -67t46 -117q0 -70 -36 -118.5t-99 -73t-144 -24.5q-66 0 -126 14.5t-108 41.5t-81 62l83 115
q25 -29 61.5 -51.5t80 -35.5t88.5 -13q35 0 58.5 7t34.5 21t11 33q0 21 -15 35.5t-57 24.5l-122 27q-56 13 -99.5 34.5t-68.5 58t-25 91.5q0 62 34 110.5t98 76.5t153 28zM251 10l41 27q78 -11 115 -42.5t37 -84.5q0 -56 -37.5 -90.5t-102.5 -34.5q-39 0 -62 8.5t-41 20.5
l28 81q12 -7 26 -12.5t34 -5.5q26 0 42 15t16 42q0 23 -21 41t-75 35z" />
    <glyph glyph-name="scedilla" unicode="&#x15f;" horiz-adv-x="534" 
d="M271 -10q-75 0 -139.5 24.5t-106.5 70.5l80 94q25 -32 66.5 -53.5t92.5 -21.5q31 0 51 9t20 28q0 14 -10 22.5t-40 14.5l-70 14q-94 19 -133.5 56.5t-39.5 98.5q0 41 25 78.5t77 61t133 23.5q76 0 134 -22t92 -64l-81 -92q-24 30 -62 47t-76 17q-24 0 -40.5 -4.5
t-24.5 -12.5t-8 -20q0 -13 12.5 -22.5t46.5 -16.5l91 -18q77 -14 111 -51t34 -89q0 -49 -26 -88t-78 -61.5t-131 -22.5zM196 10l41 27q78 -11 115 -42.5t37 -84.5q0 -56 -37.5 -90.5t-102.5 -34.5q-39 0 -62 8.5t-41 20.5l28 81q12 -7 26 -12.5t34 -5.5q26 0 42 15t16 42
q0 23 -21 41t-75 35z" />
    <glyph glyph-name="Scaron" unicode="&#x160;" horiz-adv-x="645" 
d="M331 670q92 0 162.5 -28.5t122.5 -83.5l-83 -111q-43 45 -92.5 67.5t-112.5 22.5q-37 0 -60 -8t-33 -22t-10 -32q0 -21 19.5 -35.5t63.5 -24.5l111 -25q99 -23 145 -67t46 -117q0 -70 -36 -118.5t-99 -73t-144 -24.5q-66 0 -126 14.5t-108 41.5t-81 62l83 115
q25 -29 61.5 -51.5t80 -35.5t88.5 -13q35 0 58.5 7t34.5 21t11 33q0 21 -15 35.5t-57 24.5l-122 27q-56 13 -99.5 34.5t-68.5 58t-25 91.5q0 62 34 110.5t98 76.5t153 28zM512 886l-100 -163h-166l-100 163h118l65 -92l65 92h118z" />
    <glyph glyph-name="scaron" unicode="&#x161;" horiz-adv-x="534" 
d="M271 -10q-75 0 -139.5 24.5t-106.5 70.5l80 94q25 -32 66.5 -53.5t92.5 -21.5q31 0 51 9t20 28q0 14 -10 22.5t-40 14.5l-70 14q-94 19 -133.5 56.5t-39.5 98.5q0 41 25 78.5t77 61t133 23.5q76 0 134 -22t92 -64l-81 -92q-24 30 -62 47t-76 17q-24 0 -40.5 -4.5
t-24.5 -12.5t-8 -20q0 -13 12.5 -22.5t46.5 -16.5l91 -18q77 -14 111 -51t34 -89q0 -49 -26 -88t-78 -61.5t-131 -22.5zM462 738l-109 -173h-165l-109 173h123l68 -89l69 89h123z" />
    <glyph glyph-name="uni0162" unicode="&#x162;" horiz-adv-x="653" 
d="M258 8l35 29q78 -11 115 -42.5t37 -84.5q0 -56 -37.5 -90.5t-102.5 -34.5q-39 0 -62 8.5t-41 20.5l28 81q12 -7 26 -12.5t34 -5.5q26 0 42 15t16 42q0 23 -20 40.5t-70 33.5zM628 660v-133h-215v-527h-172v527h-216v133h603z" />
    <glyph glyph-name="uni0163" unicode="&#x163;" horiz-adv-x="437" 
d="M270 659v-481q0 -36 17.5 -51.5t48.5 -15.5q24 0 41.5 5.5t31.5 16.5l18 -105q-25 -18 -63 -28t-78 -10q-57 0 -98.5 16t-64 51t-23.5 93v462zM419 500v-121h-405v121h405zM180 10l41 27q78 -11 115 -42.5t37 -84.5q0 -56 -37.5 -90.5t-102.5 -34.5q-39 0 -62 8.5
t-41 20.5l28 81q12 -7 26 -12.5t34 -5.5q26 0 42 15t16 42q0 23 -21 41t-75 35z" />
    <glyph glyph-name="Tcaron" unicode="&#x164;" horiz-adv-x="653" 
d="M628 660v-133h-215v-527h-172v527h-216v133h603zM510 886l-100 -163h-166l-100 163h118l65 -92l65 92h118z" />
    <glyph glyph-name="tcaron" unicode="&#x165;" horiz-adv-x="437" 
d="M468 767l-53 -215h-98l21 215h130zM270 659v-481q0 -36 17.5 -51.5t48.5 -15.5q24 0 41.5 5.5t31.5 16.5l18 -105q-25 -18 -63 -28t-78 -10q-57 0 -98.5 16t-64 51t-23.5 93v462zM419 500v-121h-405v121h405z" />
    <glyph glyph-name="Tbar" unicode="&#x166;" horiz-adv-x="653" 
d="M628 660v-133h-215v-527h-172v527h-216v133h603zM562 368v-133h-470v133h470z" />
    <glyph glyph-name="tbar" unicode="&#x167;" horiz-adv-x="438" 
d="M420 322v-97h-406v97h406zM272 659v-481q0 -36 17 -51.5t49 -15.5q23 0 40.5 5.5t32.5 16.5l17 -105q-24 -18 -62.5 -28t-77.5 -10q-58 0 -99.5 16t-64 51t-22.5 93v462zM420 500v-121h-405v121h405z" />
    <glyph glyph-name="Utilde" unicode="&#x168;" horiz-adv-x="710" 
d="M650 660v-391q0 -140 -74.5 -209.5t-220.5 -69.5q-145 0 -220 69.5t-75 209.5v391h173v-394q0 -71 30.5 -106t91.5 -35q62 0 92.5 35t30.5 106v394h172zM553 868q-2 -53 -18.5 -88.5t-44 -53t-60.5 -17.5q-28 0 -48.5 8.5t-35.5 20t-28 20t-28 8.5q-17 0 -26 -14t-12 -42
h-96q3 80 39 119.5t92 39.5q27 0 46 -8.5t33 -20t26.5 -20t26.5 -8.5q18 0 26.5 14t11.5 42h96z" />
    <glyph glyph-name="utilde" unicode="&#x169;" horiz-adv-x="619" 
d="M230 -10q-51 0 -89.5 17.5t-60.5 56.5t-22 102v334h170v-294q0 -48 19 -67t54 -19q18 0 34 6.5t28 20t18.5 35t6.5 50.5v268h170v-500h-152l-5 94q-24 -53 -67 -78.5t-104 -25.5zM503 714q-2 -53 -18.5 -88.5t-44 -53t-60.5 -17.5q-28 0 -48.5 8.5t-35.5 20t-28 20
t-28 8.5q-17 0 -26 -14t-12 -42h-96q3 80 39 119.5t92 39.5q27 0 46 -8.5t33 -20t26.5 -20t26.5 -8.5q18 0 26.5 14t11.5 42h96z" />
    <glyph glyph-name="Umacron" unicode="&#x16a;" horiz-adv-x="710" 
d="M650 660v-391q0 -140 -74.5 -209.5t-220.5 -69.5q-145 0 -220 69.5t-75 209.5v391h173v-394q0 -71 30.5 -106t91.5 -35q62 0 92.5 35t30.5 106v394h172zM537 824v-105h-364v105h364z" />
    <glyph glyph-name="umacron" unicode="&#x16b;" horiz-adv-x="619" 
d="M230 -10q-51 0 -89.5 17.5t-60.5 56.5t-22 102v334h170v-294q0 -48 19 -67t54 -19q18 0 34 6.5t28 20t18.5 35t6.5 50.5v268h170v-500h-152l-5 94q-24 -53 -67 -78.5t-104 -25.5zM487 670v-105h-364v105h364z" />
    <glyph glyph-name="Ubreve" unicode="&#x16c;" horiz-adv-x="710" 
d="M650 660v-391q0 -140 -74.5 -209.5t-220.5 -69.5q-145 0 -220 69.5t-75 209.5v391h173v-394q0 -71 30.5 -106t91.5 -35q62 0 92.5 35t30.5 106v394h172zM524 868q0 -76 -45.5 -119.5t-123.5 -43.5q-77 0 -123 43.5t-46 119.5h109q1 -30 16 -49t44 -19q30 0 44.5 19
t15.5 49h109z" />
    <glyph glyph-name="ubreve" unicode="&#x16d;" horiz-adv-x="619" 
d="M230 -10q-51 0 -89.5 17.5t-60.5 56.5t-22 102v334h170v-294q0 -48 19 -67t54 -19q18 0 34 6.5t28 20t18.5 35t6.5 50.5v268h170v-500h-152l-5 94q-24 -53 -67 -78.5t-104 -25.5zM474 714q0 -76 -45.5 -119.5t-123.5 -43.5q-77 0 -123 43.5t-46 119.5h109q1 -30 16 -49
t44 -19q30 0 44.5 19t15.5 49h109z" />
    <glyph glyph-name="Uring" unicode="&#x16e;" horiz-adv-x="710" 
d="M650 660v-391q0 -140 -74.5 -209.5t-220.5 -69.5q-145 0 -220 69.5t-75 209.5v391h173v-394q0 -71 30.5 -106t91.5 -35q62 0 92.5 35t30.5 106v394h172zM354 937q63 0 101 -34t38 -91q0 -58 -38 -92t-101 -34t-101.5 34t-38.5 92q0 57 38.5 91t101.5 34zM354 864
q-24 0 -39 -14t-15 -38t15 -38.5t39 -14.5t38.5 14.5t14.5 38.5t-14.5 38t-38.5 14z" />
    <glyph glyph-name="uring" unicode="&#x16f;" horiz-adv-x="619" 
d="M230 -10q-51 0 -89.5 17.5t-60.5 56.5t-22 102v334h170v-294q0 -48 19 -67t54 -19q18 0 34 6.5t28 20t18.5 35t6.5 50.5v268h170v-500h-152l-5 94q-24 -53 -67 -78.5t-104 -25.5zM304 798q63 0 101 -34t38 -91q0 -58 -38 -92t-101 -34t-101.5 34t-38.5 92q0 57 38.5 91
t101.5 34zM304 725q-24 0 -39 -14t-15 -38t15 -38.5t39 -14.5t38.5 14.5t14.5 38.5t-14.5 38t-38.5 14z" />
    <glyph glyph-name="Uhungarumlaut" unicode="&#x170;" horiz-adv-x="710" 
d="M650 660v-391q0 -140 -74.5 -209.5t-220.5 -69.5q-145 0 -220 69.5t-75 209.5v391h173v-394q0 -71 30.5 -106t91.5 -35q62 0 92.5 35t30.5 106v394h172zM461 876h152l-89 -163h-124zM237 876h152l-89 -163h-124z" />
    <glyph glyph-name="uhungarumlaut" unicode="&#x171;" horiz-adv-x="619" 
d="M230 -10q-51 0 -89.5 17.5t-60.5 56.5t-22 102v334h170v-294q0 -48 19 -67t54 -19q18 0 34 6.5t28 20t18.5 35t6.5 50.5v268h170v-500h-152l-5 94q-24 -53 -67 -78.5t-104 -25.5zM339 561l69 173h144l-95 -173h-118zM127 561l69 173h144l-95 -173h-118z" />
    <glyph glyph-name="Uogonek" unicode="&#x172;" horiz-adv-x="710" 
d="M650 660v-391q0 -140 -74.5 -209.5t-220.5 -69.5q-145 0 -220 69.5t-75 209.5v391h173v-394q0 -71 30.5 -106t91.5 -35q62 0 92.5 35t30.5 106v394h172zM399 -218q-63 0 -98.5 30t-35.5 81q0 59 41.5 92t114.5 46l67 -22q-41 -13 -65.5 -26t-35.5 -27.5t-11 -33.5
q0 -21 14.5 -32.5t39.5 -11.5q13 0 25 2.5t21 6.5l17 -85q-19 -11 -41.5 -15.5t-52.5 -4.5z" />
    <glyph glyph-name="uogonek" unicode="&#x173;" horiz-adv-x="619" 
d="M471 -227q-37 0 -70 12t-53 37.5t-20 67.5q0 46 21.5 75.5t59 47t83.5 27.5l66 -40q-53 -21 -78.5 -41t-25.5 -47q0 -20 13.5 -32t38.5 -12q11 0 23.5 2.5t19.5 6.5l23 -82q-20 -12 -44.5 -17t-56.5 -5zM230 -10q-51 0 -89.5 17.5t-60.5 56.5t-22 102v334h170v-294
q0 -48 19 -67t54 -19q18 0 34 6.5t28 20t18.5 35t6.5 50.5v268h170v-500h-152l-5 94q-24 -53 -67 -78.5t-104 -25.5z" />
    <glyph glyph-name="Wcircumflex" unicode="&#x174;" horiz-adv-x="997" 
d="M200 0l-190 660h183l112 -521l118 521h156l121 -520l110 520h177l-191 -660h-187l-78 320l-30 161h-2l-29 -161l-77 -320h-193zM681 723h-118l-65 92l-65 -92h-118l100 163h166z" />
    <glyph glyph-name="wcircumflex" unicode="&#x175;" horiz-adv-x="900" 
d="M716 500h178l-151 -500h-204l-91 307l-88 -307h-203l-152 500h179l84 -369l98 369h168l97 -369zM641 559h-122l-69 88l-69 -88h-122l109 173h164z" />
    <glyph glyph-name="Ycircumflex" unicode="&#x176;" horiz-adv-x="657" 
d="M647 660l-233 -419v-241h-172v241l-233 419h178l93 -181l49 -110l50 110l93 181h175zM511 715h-118l-65 92l-65 -92h-118l100 163h166z" />
    <glyph glyph-name="ycircumflex" unicode="&#x177;" horiz-adv-x="563" 
d="M564 500l-182 -500q-28 -79 -61 -126t-78 -68t-108 -21q-42 0 -77 9t-61 25l34 115q18 -13 38 -18.5t51 -5.5q29 0 47.5 10t29.5 38l13 31l-58 136l-150 375h187l77 -285l24 -106l28 110l77 281h169zM488 555h-122l-69 88l-69 -88h-122l109 173h164z" />
    <glyph glyph-name="Ydieresis" unicode="&#x178;" horiz-adv-x="657" 
d="M647 660l-233 -419v-241h-172v241l-233 419h178l93 -181l49 -110l50 110l93 181h175zM217 862q41 0 63.5 -20t22.5 -57q0 -36 -22.5 -56.5t-63.5 -20.5q-39 0 -61.5 20.5t-22.5 56.5q0 37 22.5 57t61.5 20zM437 862q40 0 63 -20t23 -57q0 -36 -23 -56.5t-63 -20.5
q-39 0 -61.5 20.5t-22.5 56.5q0 37 22.5 57t61.5 20z" />
    <glyph glyph-name="Zacute" unicode="&#x179;" horiz-adv-x="634" 
d="M172 72l-30 58h461v-130h-566v124l421 464l30 -58h-444v130h547v-124zM309 886h152l-89 -163h-124z" />
    <glyph glyph-name="zacute" unicode="&#x17a;" horiz-adv-x="516" 
d="M35 0v104l199 226l53 53l-79 -2h-171v119h438v-104l-196 -224l-55 -55l88 2h172v-119h-449zM241 738h158l-101 -173h-124z" />
    <glyph glyph-name="Zdotaccent" unicode="&#x17b;" horiz-adv-x="634" 
d="M172 72l-30 58h461v-130h-566v124l421 464l30 -58h-444v130h547v-124zM320 882q46 0 69.5 -20.5t23.5 -59.5t-23.5 -60t-69.5 -21q-44 0 -67.5 21t-23.5 60t23.5 59.5t67.5 20.5z" />
    <glyph glyph-name="zdotaccent" unicode="&#x17c;" horiz-adv-x="516" 
d="M35 0v104l199 226l53 53l-79 -2h-171v119h438v-104l-196 -224l-55 -55l88 2h172v-119h-449zM251 722q46 0 69.5 -20.5t23.5 -59.5t-23.5 -60t-69.5 -21q-44 0 -67.5 21t-23.5 60t23.5 59.5t67.5 20.5z" />
    <glyph glyph-name="Zcaron" unicode="&#x17d;" horiz-adv-x="634" 
d="M172 72l-30 58h461v-130h-566v124l421 464l30 -58h-444v130h547v-124zM503 886l-100 -163h-166l-100 163h118l65 -92l65 92h118z" />
    <glyph glyph-name="zcaron" unicode="&#x17e;" horiz-adv-x="516" 
d="M35 0v104l199 226l53 53l-79 -2h-171v119h438v-104l-196 -224l-55 -55l88 2h172v-119h-449zM439 738l-109 -173h-165l-109 173h123l68 -89l69 89h123z" />
    <glyph glyph-name="longs" unicode="&#x17f;" horiz-adv-x="325" 
d="M59 0v546q0 63 25 103t68.5 58.5t97.5 18.5q34 0 57.5 -6t39.5 -19l-10 -106q-10 7 -19.5 9.5t-23.5 2.5q-31 0 -50.5 -17.5t-19.5 -56.5v-533h-165z" />
    <glyph glyph-name="uni018E" unicode="&#x18e;" horiz-adv-x="631" 
d="M558 0h-528v133h356v135h-272v125h272v134h-342v133h514v-660z" />
    <glyph glyph-name="uni018F" unicode="&#x18f;" horiz-adv-x="708" 
d="M340 -10q-96 0 -164 39.5t-103 110t-35 161.5q0 14 1 28.5t2 29.5h524v-101h-442l88 55q-1 -9 -1.5 -17.5t-0.5 -17.5q0 -51 18 -85t49 -51t70 -17q49 0 80.5 23.5t47.5 71t16 120.5q0 63 -17.5 107t-50 66t-80.5 22q-57 0 -89.5 -27t-46.5 -78l-161 35q21 70 64 115
t103 67.5t131 22.5q100 0 172 -40.5t110 -116.5t38 -183t-39.5 -183t-111.5 -116.5t-172 -40.5z" />
    <glyph glyph-name="florin" unicode="&#x192;" horiz-adv-x="516" 
d="M413 727q38 0 60.5 -5.5t47.5 -21.5l-22 -107q-24 16 -55 16q-33 0 -54.5 -19.5t-28.5 -57.5l-82 -485q-15 -85 -65 -130t-132 -45q-37 0 -60 6t-48 21l22 107q23 -16 56 -16t54.5 20t27.5 56l83 486q15 85 65 130t131 45zM477 417v-118h-439v118h439z" />
    <glyph glyph-name="Ohorn" unicode="&#x1a0;" horiz-adv-x="737" 
d="M675 766q0 -96 -53 -149t-158 -53l-8 96q55 0 78 25.5t23 80.5h118zM369 670q100 0 172.5 -40.5t111.5 -116.5t39 -183t-39 -183t-111.5 -116.5t-172.5 -40.5t-173 40.5t-112 116.5t-39 183t39 183t112 116.5t173 40.5zM369 535q-48 0 -81 -23t-50 -68.5t-17 -113.5
q0 -67 17 -113t50 -69t81 -23t80.5 23t49.5 69t17 113q0 68 -17 113.5t-49.5 68.5t-80.5 23z" />
    <glyph glyph-name="ohorn" unicode="&#x1a1;" horiz-adv-x="599" 
d="M299 510q79 0 138.5 -30.5t93 -89t33.5 -140.5t-33.5 -140.5t-93 -89t-138.5 -30.5q-77 0 -137 30.5t-93.5 89t-33.5 140.5t33.5 140.5t93.5 89t137 30.5zM299 389q-29 0 -50 -14t-32 -45t-11 -80t11 -79.5t32 -45t50 -14.5q30 0 51 14.5t32 45t11 79.5t-11 80t-32 45
t-51 14zM382 410v90q31 0 49 25.5t18 84.5h116q0 -103 -48.5 -151.5t-134.5 -48.5z" />
    <glyph glyph-name="Uhorn" unicode="&#x1af;" horiz-adv-x="710" 
d="M650 660v-391q0 -140 -74.5 -209.5t-220.5 -69.5q-145 0 -220 69.5t-75 209.5v391h173v-394q0 -71 30.5 -106t91.5 -35q62 0 92.5 35t30.5 106v394h172zM763 766q0 -96 -51 -149t-150 -53l-8 96q49 0 70 25.5t21 80.5h118z" />
    <glyph glyph-name="uhorn" unicode="&#x1b0;" horiz-adv-x="631" 
d="M230 -10q-51 0 -89.5 17.5t-60.5 56.5t-22 102v334h170v-294q0 -48 19 -67t54 -19q18 0 34 6.5t28 20t18.5 35t6.5 50.5v268h170v-500h-152l-5 94q-24 -53 -67 -78.5t-104 -25.5zM483 410v90q31 0 49 25.5t18 84.5h116q0 -103 -48.5 -151.5t-134.5 -48.5z" />
    <glyph glyph-name="uni01C4" unicode="&#x1c4;" horiz-adv-x="1347" 
d="M353 660q155 0 237.5 -86t82.5 -244t-82.5 -244t-237.5 -86h-280v660h280zM336 130q84 0 122.5 50.5t38.5 149.5t-38.5 149.5t-122.5 50.5h-91v-400h91zM885 72l-30 58h461v-130h-566v124l421 464l30 -58h-444v130h547v-124zM1216 886l-100 -163h-166l-100 163h118
l65 -92l65 92h118z" />
    <glyph glyph-name="uni01C5" unicode="&#x1c5;" horiz-adv-x="1232" 
d="M353 660q155 0 237.5 -86t82.5 -244t-82.5 -244t-237.5 -86h-280v660h280zM336 130q84 0 122.5 50.5t38.5 149.5t-38.5 149.5t-122.5 50.5h-91v-400h91zM751 0v104l199 226l53 53l-79 -2h-171v119h438v-104l-196 -224l-55 -55l88 2h172v-119h-449zM1155 738l-109 -173
h-165l-109 173h123l68 -89l69 89h123z" />
    <glyph glyph-name="uni01C6" unicode="&#x1c6;" horiz-adv-x="1143" 
d="M245 -10q-62 0 -108.5 30.5t-72 88.5t-25.5 139q0 84 26.5 142t74 89t109.5 31q68 0 109.5 -41.5t53.5 -105.5l-16 -21v370h170v-712h-152l-11 170l20 -15q-6 -50 -30.5 -87t-62 -57.5t-85.5 -20.5zM304 115q29 0 49.5 15.5t31.5 46.5t11 76q0 42 -10.5 71.5t-31 45
t-49.5 15.5q-44 0 -69.5 -32.5t-25.5 -102.5t25 -102.5t69 -32.5zM662 0v104l199 226l53 53l-79 -2h-171v119h438v-104l-196 -224l-55 -55l88 2h172v-119h-449zM1066 738l-109 -173h-165l-109 173h123l68 -89l69 89h123z" />
    <glyph glyph-name="uni01C7" unicode="&#x1c7;" horiz-adv-x="1220" 
d="M245 133h331v-133h-503v660h172v-527zM1159 660v-406q0 -125 -72 -194.5t-204 -69.5q-97 0 -156 34.5t-81 96t-9 140.5l168 30q-12 -91 8.5 -128.5t75.5 -37.5q54 0 76 36t22 111v388h172z" />
    <glyph glyph-name="uni01C8" unicode="&#x1c8;" horiz-adv-x="893" 
d="M245 133h331v-133h-503v660h172v-527zM748 558q-52 0 -75.5 19.5t-23.5 61.5q0 43 23.5 62.5t75.5 19.5q51 0 75 -19.5t24 -62.5q0 -42 -24 -61.5t-75 -19.5zM833 500v-528q0 -68 -23.5 -109t-66.5 -59.5t-104 -18.5q-40 0 -73 8.5t-58 23.5l24 110q11 -8 27 -13.5
t37 -5.5q30 0 48.5 17.5t18.5 61.5v513h170z" />
    <glyph glyph-name="uni01C9" unicode="&#x1c9;" horiz-adv-x="618" 
d="M229 712v-542q0 -33 11 -47t37 -14q15 0 25 2t24 6l-11 -102q-18 -11 -47 -18t-57 -7q-80 0 -116 37t-36 121v564h170zM473 558q-52 0 -75.5 19.5t-23.5 61.5q0 43 23.5 62.5t75.5 19.5q51 0 75 -19.5t24 -62.5q0 -42 -24 -61.5t-75 -19.5zM558 500v-528
q0 -68 -23.5 -109t-66.5 -59.5t-104 -18.5q-40 0 -73 8.5t-58 23.5l24 110q11 -8 27 -13.5t37 -5.5q30 0 48.5 17.5t18.5 61.5v513h170z" />
    <glyph glyph-name="uni01CA" unicode="&#x1ca;" horiz-adv-x="1359" 
d="M668 660v-660h-191l-205 357l-50 98h-1l4 -122v-333h-152v660h191l205 -357l50 -98h1l-4 122v333h152zM1298 660v-406q0 -125 -72 -194.5t-204 -69.5q-97 0 -156 34.5t-81 96t-9 140.5l168 30q-12 -91 8.5 -128.5t75.5 -37.5q54 0 76 36t22 111v388h172z" />
    <glyph glyph-name="uni01CB" unicode="&#x1cb;" horiz-adv-x="1032" 
d="M668 660v-660h-191l-205 357l-50 98h-1l4 -122v-333h-152v660h191l205 -357l50 -98h1l-4 122v333h152zM887 558q-52 0 -75.5 19.5t-23.5 61.5q0 43 23.5 62.5t75.5 19.5q51 0 75 -19.5t24 -62.5q0 -42 -24 -61.5t-75 -19.5zM972 500v-528q0 -68 -23.5 -109t-66.5 -59.5
t-104 -18.5q-40 0 -73 8.5t-58 23.5l24 110q11 -8 27 -13.5t37 -5.5q30 0 48.5 17.5t18.5 61.5v513h170z" />
    <glyph glyph-name="uni01CC" unicode="&#x1cc;" horiz-adv-x="911" 
d="M61 0v500h152l9 -172l-19 19q10 54 35.5 90t64 54.5t86.5 18.5q52 0 90.5 -20t60.5 -59t22 -98v-333h-170v288q0 52 -20 72t-51 20q-24 0 -45 -11.5t-33 -36.5t-12 -67v-265h-170zM766 558q-52 0 -75.5 19.5t-23.5 61.5q0 43 23.5 62.5t75.5 19.5q51 0 75 -19.5t24 -62.5
q0 -42 -24 -61.5t-75 -19.5zM851 500v-528q0 -68 -23.5 -109t-66.5 -59.5t-104 -18.5q-40 0 -73 8.5t-58 23.5l24 110q11 -8 27 -13.5t37 -5.5q30 0 48.5 17.5t18.5 61.5v513h170z" />
    <glyph glyph-name="uni01DD" unicode="&#x1dd;" 
d="M277 510q84 0 143 -30.5t91.5 -89t32.5 -140.5t-33 -140.5t-91.5 -89t-135.5 -30.5q-79 0 -135 32.5t-85.5 86t-29.5 118.5q0 17 1.5 33t2.5 26h396v-80h-322l82 29q0 -39 10 -67.5t30 -43.5t49 -15q33 0 55 15t33 47t11 81q0 51 -12 81t-35.5 43.5t-58.5 13.5
q-38 0 -61.5 -16.5t-35.5 -43.5l-137 45q18 40 52.5 70t81.5 47.5t101 17.5z" />
    <glyph glyph-name="Gcaron" unicode="&#x1e6;" horiz-adv-x="723" 
d="M346 -10q-88 0 -156.5 39t-106.5 115t-38 185q0 107 40 183t114.5 117t175.5 41q112 0 181 -40.5t107 -128.5l-159 -63q-13 51 -46 74t-82 23t-84 -23.5t-53 -69t-18 -112.5q0 -70 18.5 -117t55 -69.5t90.5 -22.5q29 0 53 7t42 20.5t28 34t10 48.5v10h-151v115h297v-356
h-117l-13 155l28 -24q-21 -68 -75.5 -104.5t-140.5 -36.5zM551 886l-100 -163h-166l-100 163h118l65 -92l65 92h118z" />
    <glyph glyph-name="gcaron" unicode="&#x1e7;" horiz-adv-x="560" 
d="M545 634l14 -114q-6 2 -12 2.5t-12 0.5q-44 0 -65.5 -21.5t-21.5 -53.5l-60 22q0 41 15 79t46.5 62t79.5 24h7.5t8.5 -1zM373 111q87 0 133.5 -36.5t46.5 -104.5q0 -62 -34 -103t-95.5 -61.5t-145.5 -20.5q-136 0 -196 34t-60 92q0 42 34 68t113 28l-4 -16q-61 8 -91 36
t-30 76t38 78t101 33l62 -29h-16q-39 -2 -55 -13t-16 -27q0 -17 14 -25.5t42 -8.5h159zM279 -105q48 0 79.5 6.5t47.5 18t16 26.5t-11 23.5t-40 8.5h-179q-19 0 -30.5 -10t-11.5 -25q0 -23 34 -35.5t95 -12.5zM285 510q76 0 130 -20t82.5 -57.5t28.5 -92.5q0 -54 -28.5 -92
t-82.5 -57.5t-130 -19.5q-119 0 -180.5 44t-61.5 125q0 55 28.5 92.5t82.5 57.5t131 20zM285 413q-33 0 -53.5 -19t-20.5 -54q0 -34 20.5 -53t53.5 -19q32 0 53 19t21 53q0 35 -21 54t-53 19zM448 738l-109 -173h-165l-109 173h123l68 -89l69 89h123z" />
    <glyph glyph-name="uni01EA" unicode="&#x1ea;" horiz-adv-x="737" 
d="M369 670q100 0 172.5 -40.5t111.5 -116.5t39 -183t-39 -183t-111.5 -116.5t-172.5 -40.5t-173 40.5t-112 116.5t-39 183t39 183t112 116.5t173 40.5zM369 535q-48 0 -81 -23t-50 -68.5t-17 -113.5q0 -67 17 -113t50 -69t81 -23t80.5 23t49.5 69t17 113q0 68 -17 113.5
t-49.5 68.5t-80.5 23zM399 -220q-63 0 -98.5 30t-35.5 81q0 59 41.5 92t114.5 46l67 -22q-41 -13 -65.5 -26t-35.5 -27.5t-11 -33.5q0 -21 14.5 -32.5t39.5 -11.5q13 0 25 2.5t21 6.5l17 -85q-19 -11 -41.5 -15.5t-52.5 -4.5z" />
    <glyph glyph-name="uni01EB" unicode="&#x1eb;" horiz-adv-x="599" 
d="M299 510q79 0 138.5 -30.5t93 -89t33.5 -140.5t-33.5 -140.5t-93 -89t-138.5 -30.5q-77 0 -137 30.5t-93.5 89t-33.5 140.5t33.5 140.5t93.5 89t137 30.5zM299 389q-29 0 -50 -14t-32 -45t-11 -80t11 -79.5t32 -45t50 -14.5q30 0 51 14.5t32 45t11 79.5t-11 80t-32 45
t-51 14zM331 -215q-63 0 -98.5 30t-35.5 81q0 59 41.5 92t114.5 46l67 -22q-41 -13 -65.5 -26t-35.5 -27.5t-11 -33.5q0 -21 14.5 -32.5t39.5 -11.5q13 0 25 2.5t21 6.5l17 -85q-19 -11 -41.5 -15.5t-52.5 -4.5z" />
    <glyph glyph-name="uni01F1" unicode="&#x1f1;" horiz-adv-x="1347" 
d="M353 660q155 0 237.5 -86t82.5 -244t-82.5 -244t-237.5 -86h-280v660h280zM336 130q84 0 122.5 50.5t38.5 149.5t-38.5 149.5t-122.5 50.5h-91v-400h91zM885 72l-30 58h461v-130h-566v124l421 464l30 -58h-444v130h547v-124z" />
    <glyph glyph-name="uni01F2" unicode="&#x1f2;" horiz-adv-x="1232" 
d="M353 660q155 0 237.5 -86t82.5 -244t-82.5 -244t-237.5 -86h-280v660h280zM336 130q84 0 122.5 50.5t38.5 149.5t-38.5 149.5t-122.5 50.5h-91v-400h91zM751 0v104l199 226l53 53l-79 -2h-171v119h438v-104l-196 -224l-55 -55l88 2h172v-119h-449z" />
    <glyph glyph-name="uni01F3" unicode="&#x1f3;" horiz-adv-x="1143" 
d="M245 -10q-62 0 -108.5 30.5t-72 88.5t-25.5 139q0 84 26.5 142t74 89t109.5 31q68 0 109.5 -41.5t53.5 -105.5l-16 -21v370h170v-712h-152l-11 170l20 -15q-6 -50 -30.5 -87t-62 -57.5t-85.5 -20.5zM304 115q29 0 49.5 15.5t31.5 46.5t11 76q0 42 -10.5 71.5t-31 45
t-49.5 15.5q-44 0 -69.5 -32.5t-25.5 -102.5t25 -102.5t69 -32.5zM662 0v104l199 226l53 53l-79 -2h-171v119h438v-104l-196 -224l-55 -55l88 2h172v-119h-449z" />
    <glyph glyph-name="Aringacute" unicode="&#x1fa;" horiz-adv-x="677" 
d="M673 0h-177l-46 149h-226l-47 -149h-173l232 660h206zM256 266h162l-81 267zM338 842q63 0 101 -34t38 -91q0 -58 -38 -92t-101 -34t-101.5 34t-38.5 92q0 57 38.5 91t101.5 34zM338 769q-24 0 -39 -14t-15 -38t15 -38.5t39 -14.5t38.5 14.5t14.5 38.5t-14.5 38t-38.5 14
zM338 1044h152l-89 -163h-124z" />
    <glyph glyph-name="aringacute" unicode="&#x1fb;" 
d="M340 317q0 35 -19.5 55.5t-52.5 20.5t-56.5 -16.5t-32.5 -58.5l-144 34q14 72 74 115t169 43q73 0 124.5 -21.5t79 -64t27.5 -104.5v-183q0 -39 35 -39q18 0 29 4l-10 -97q-30 -14 -73 -14q-39 0 -69 12.5t-47 38t-17 64.5v6l19 7q0 -43 -25.5 -72t-66 -43t-84.5 -14
q-51 0 -89 16t-58.5 46.5t-20.5 75.5q0 54 32.5 89.5t102.5 49.5l189 39l-1 -90l-96 -20q-30 -6 -44.5 -17.5t-14.5 -34.5q0 -22 16 -33t38 -11q17 0 32.5 5t27.5 15.5t19 26.5t7 38v132zM276 802q63 0 101 -34t38 -91q0 -58 -38 -92t-101 -34t-101.5 34t-38.5 92
q0 57 38.5 91t101.5 34zM276 729q-24 0 -39 -14t-15 -38t15 -38.5t39 -14.5t38.5 14.5t14.5 38.5t-14.5 38t-38.5 14zM216 837l56 152h151l-84 -152h-123z" />
    <glyph glyph-name="AEacute" unicode="&#x1fc;" horiz-adv-x="924" 
d="M581 127h313v-127h-473v196h-175l-77 -196h-173l283 660h601v-127h-299v-142h229v-120h-229v-144zM283 308h138v230h-42zM490 886h152l-89 -163h-124z" />
    <glyph glyph-name="aeacute" unicode="&#x1fd;" horiz-adv-x="880" 
d="M208 -10q-55 0 -94.5 16t-60.5 46.5t-21 75.5q0 55 36.5 91t100.5 49l170 34v13q0 37 -20 57.5t-55 20.5q-30 0 -52.5 -16.5t-32.5 -58.5l-145 34q6 45 36.5 80.5t80.5 56.5t114 21q82 0 134.5 -27.5t65.5 -83.5l-55 -2q20 36 50 61t68 38.5t82 13.5q76 0 128 -30.5
t79 -84t27 -122.5q0 -17 -1 -33.5t-3 -32.5h-337v0q0 -47 33.5 -72t76.5 -25q35 0 54.5 15t30.5 42l137 -45q-14 -43 -46.5 -72.5t-77 -44.5t-96.5 -15q-87 0 -144.5 40t-78.5 118l36 -6q-6 -32 -23 -59.5t-44.5 -48.5t-66 -32.5t-86.5 -11.5zM254 99q17 0 32 5.5t27 17
t19 27.5t7 37v29l-82 -18q-31 -7 -44.5 -18t-13.5 -35q0 -19 14 -32t41 -13zM503 298h180q-1 29 -11.5 50t-29 32t-43.5 11q-40 0 -64 -23t-32 -70zM421 738h158l-101 -173h-124z" />
    <glyph glyph-name="Oslashacute" unicode="&#x1fe;" horiz-adv-x="737" 
d="M252 113l-49 41l269 370l51 -38zM62 -27l124 162l53 -40l-97 -122h-80zM548 515l-53 40l100 126h80zM369 670q100 0 172.5 -40.5t111.5 -116.5t39 -183t-39 -183t-111.5 -116.5t-172.5 -40.5t-173 40.5t-112 116.5t-39 183t39 183t112 116.5t173 40.5zM369 535
q-48 0 -81 -23t-50 -68.5t-17 -113.5q0 -67 17 -113t50 -69t81 -23t80.5 23t49.5 69t17 113q0 68 -17 113.5t-49.5 68.5t-80.5 23zM358 886h152l-89 -163h-124z" />
    <glyph glyph-name="oslashacute" unicode="&#x1ff;" horiz-adv-x="599" 
d="M299 510q79 0 138.5 -30.5t93 -89t33.5 -140.5t-33.5 -140.5t-93 -89t-138.5 -30.5q-77 0 -137 30.5t-93.5 89t-33.5 140.5t33.5 140.5t93.5 89t137 30.5zM299 389q-29 0 -50 -14t-32 -45t-11 -80t11 -79.5t32 -45t50 -14.5q30 0 51 14.5t32 45t11 79.5t-11 80t-32 45
t-51 14zM44 -25l443 549h67l-443 -549h-67zM289 738h158l-101 -173h-124z" />
    <glyph glyph-name="uni0200" unicode="&#x200;" horiz-adv-x="677" 
d="M673 0h-177l-46 149h-226l-47 -149h-173l232 660h206zM256 266h162l-81 267zM232 886l61 -163h-123l-89 163h151zM456 886l61 -163h-124l-89 163h152z" />
    <glyph glyph-name="uni0201" unicode="&#x201;" 
d="M340 317q0 35 -19.5 55.5t-52.5 20.5t-56.5 -16.5t-32.5 -58.5l-144 34q14 72 74 115t169 43q73 0 124.5 -21.5t79 -64t27.5 -104.5v-183q0 -39 35 -39q18 0 29 4l-10 -97q-30 -14 -73 -14q-39 0 -69 12.5t-47 38t-17 64.5v6l19 7q0 -43 -25.5 -72t-66 -43t-84.5 -14
q-51 0 -89 16t-58.5 46.5t-20.5 75.5q0 54 32.5 89.5t102.5 49.5l189 39l-1 -90l-96 -20q-30 -6 -44.5 -17.5t-14.5 -34.5q0 -22 16 -33t38 -11q17 0 32.5 5t27.5 15.5t19 26.5t7 38v132zM239 565h-118l-95 173h144zM451 565h-118l-95 173h144z" />
    <glyph glyph-name="uni0202" unicode="&#x202;" horiz-adv-x="677" 
d="M673 0h-177l-46 149h-226l-47 -149h-173l232 660h206zM256 266h162l-81 267zM507 715h-109q-1 30 -15.5 49t-44.5 19q-29 0 -44 -19t-16 -49h-109q0 76 46 119.5t123 43.5q78 0 123.5 -43.5t45.5 -119.5z" />
    <glyph glyph-name="uni0203" unicode="&#x203;" 
d="M340 317q0 35 -19.5 55.5t-52.5 20.5t-56.5 -16.5t-32.5 -58.5l-144 34q14 72 74 115t169 43q73 0 124.5 -21.5t79 -64t27.5 -104.5v-183q0 -39 35 -39q18 0 29 4l-10 -97q-30 -14 -73 -14q-39 0 -69 12.5t-47 38t-17 64.5v6l19 7q0 -43 -25.5 -72t-66 -43t-84.5 -14
q-51 0 -89 16t-58.5 46.5t-20.5 75.5q0 54 32.5 89.5t102.5 49.5l189 39l-1 -90l-96 -20q-30 -6 -44.5 -17.5t-14.5 -34.5q0 -22 16 -33t38 -11q17 0 32.5 5t27.5 15.5t19 26.5t7 38v132zM446 555h-109q-1 30 -15.5 49t-44.5 19q-29 0 -44 -19t-16 -49h-109q0 76 46 119.5
t123 43.5q78 0 123.5 -43.5t45.5 -119.5z" />
    <glyph glyph-name="uni0204" unicode="&#x204;" horiz-adv-x="631" 
d="M73 0v660h514v-133h-342v-134h272v-125h-272v-135h355v-133h-527zM224 886l61 -163h-123l-89 163h151zM448 886l61 -163h-124l-89 163h152z" />
    <glyph glyph-name="uni0205" unicode="&#x205;" 
d="M305 -10q-83 0 -143.5 31t-93.5 89t-33 140t33 140t92.5 89t136.5 31q79 0 134.5 -30.5t84.5 -84t29 -122.5q0 -18 -1 -36t-3 -30h-396v91h321l-81 -31q0 60 -21.5 92t-66.5 32q-32 0 -54.5 -15t-34 -47t-11.5 -82q0 -49 13 -79.5t37 -44t58 -13.5q38 0 60.5 15t33.5 42
l136 -45q-14 -43 -48.5 -72.5t-82 -44.5t-99.5 -15zM256 565h-118l-95 173h144zM468 565h-118l-95 173h144z" />
    <glyph glyph-name="uni0206" unicode="&#x206;" horiz-adv-x="631" 
d="M73 0v660h514v-133h-342v-134h272v-125h-272v-135h355v-133h-527zM499 715h-109q-1 30 -15.5 49t-44.5 19q-29 0 -44 -19t-16 -49h-109q0 76 46 119.5t123 43.5q78 0 123.5 -43.5t45.5 -119.5z" />
    <glyph glyph-name="uni0207" unicode="&#x207;" 
d="M305 -10q-83 0 -143.5 31t-93.5 89t-33 140t33 140t92.5 89t136.5 31q79 0 134.5 -30.5t84.5 -84t29 -122.5q0 -18 -1 -36t-3 -30h-396v91h321l-81 -31q0 60 -21.5 92t-66.5 32q-32 0 -54.5 -15t-34 -47t-11.5 -82q0 -49 13 -79.5t37 -44t58 -13.5q38 0 60.5 15t33.5 42
l136 -45q-14 -43 -48.5 -72.5t-82 -44.5t-99.5 -15zM463 555h-109q-1 30 -15.5 49t-44.5 19q-29 0 -44 -19t-16 -49h-109q0 76 46 119.5t123 43.5q78 0 123.5 -43.5t45.5 -119.5z" />
    <glyph glyph-name="uni0208" unicode="&#x208;" horiz-adv-x="318" 
d="M245 660v-660h-172v660h172zM53 886l61 -163h-123l-89 163h151zM277 886l61 -163h-124l-89 163h152z" />
    <glyph glyph-name="uni0209" unicode="&#x209;" horiz-adv-x="291" 
d="M231 500v-500h-170v500h170zM108 565h-118l-95 173h144zM320 565h-118l-95 173h144z" />
    <glyph glyph-name="uni020A" unicode="&#x20a;" horiz-adv-x="318" 
d="M245 660v-660h-172v660h172zM328 715h-109q-1 30 -15.5 49t-44.5 19q-29 0 -44 -19t-16 -49h-109q0 76 46 119.5t123 43.5q78 0 123.5 -43.5t45.5 -119.5z" />
    <glyph glyph-name="uni020B" unicode="&#x20b;" horiz-adv-x="291" 
d="M231 500v-500h-170v500h170zM315 555h-109q-1 30 -15.5 49t-44.5 19q-29 0 -44 -19t-16 -49h-109q0 76 46 119.5t123 43.5q78 0 123.5 -43.5t45.5 -119.5z" />
    <glyph glyph-name="uni020C" unicode="&#x20c;" horiz-adv-x="737" 
d="M369 670q100 0 172.5 -40.5t111.5 -116.5t39 -183t-39 -183t-111.5 -116.5t-172.5 -40.5t-173 40.5t-112 116.5t-39 183t39 183t112 116.5t173 40.5zM369 535q-48 0 -81 -23t-50 -68.5t-17 -113.5q0 -67 17 -113t50 -69t81 -23t80.5 23t49.5 69t17 113q0 68 -17 113.5
t-49.5 68.5t-80.5 23zM263 886l61 -163h-123l-89 163h151zM487 886l61 -163h-124l-89 163h152z" />
    <glyph glyph-name="uni020D" unicode="&#x20d;" horiz-adv-x="599" 
d="M299 510q79 0 138.5 -30.5t93 -89t33.5 -140.5t-33.5 -140.5t-93 -89t-138.5 -30.5q-77 0 -137 30.5t-93.5 89t-33.5 140.5t33.5 140.5t93.5 89t137 30.5zM299 389q-29 0 -50 -14t-32 -45t-11 -80t11 -79.5t32 -45t50 -14.5q30 0 51 14.5t32 45t11 79.5t-11 80t-32 45
t-51 14zM261 565h-118l-95 173h144zM473 565h-118l-95 173h144z" />
    <glyph glyph-name="uni020E" unicode="&#x20e;" horiz-adv-x="737" 
d="M369 670q100 0 172.5 -40.5t111.5 -116.5t39 -183t-39 -183t-111.5 -116.5t-172.5 -40.5t-173 40.5t-112 116.5t-39 183t39 183t112 116.5t173 40.5zM369 535q-48 0 -81 -23t-50 -68.5t-17 -113.5q0 -67 17 -113t50 -69t81 -23t80.5 23t49.5 69t17 113q0 68 -17 113.5
t-49.5 68.5t-80.5 23zM538 715h-109q-1 30 -15.5 49t-44.5 19q-29 0 -44 -19t-16 -49h-109q0 76 46 119.5t123 43.5q78 0 123.5 -43.5t45.5 -119.5z" />
    <glyph glyph-name="uni020F" unicode="&#x20f;" horiz-adv-x="599" 
d="M299 510q79 0 138.5 -30.5t93 -89t33.5 -140.5t-33.5 -140.5t-93 -89t-138.5 -30.5q-77 0 -137 30.5t-93.5 89t-33.5 140.5t33.5 140.5t93.5 89t137 30.5zM299 389q-29 0 -50 -14t-32 -45t-11 -80t11 -79.5t32 -45t50 -14.5q30 0 51 14.5t32 45t11 79.5t-11 80t-32 45
t-51 14zM468 555h-109q-1 30 -15.5 49t-44.5 19q-29 0 -44 -19t-16 -49h-109q0 76 46 119.5t123 43.5q78 0 123.5 -43.5t45.5 -119.5z" />
    <glyph glyph-name="uni0210" unicode="&#x210;" horiz-adv-x="689" 
d="M388 660q118 0 183.5 -55.5t65.5 -147.5q0 -101 -65 -154t-183 -53l-16 -9h-131v-241h-169v660h315zM364 363q50 0 75 20t25 64q0 43 -25 63t-75 20h-122v-167h122zM465 327l211 -327h-190l-169 289zM223 886l61 -163h-123l-89 163h151zM447 886l61 -163h-124l-89 163
h152z" />
    <glyph glyph-name="uni0211" unicode="&#x211;" horiz-adv-x="430" 
d="M61 0v500h150l7 -108q19 56 56.5 87t95.5 31q19 0 32.5 -3t21.5 -8l-17 -140q-10 4 -25.5 6.5t-37.5 2.5q-30 0 -56 -13t-41.5 -38.5t-15.5 -64.5v-252h-170zM205 565h-118l-95 173h144zM417 565h-118l-95 173h144z" />
    <glyph glyph-name="uni0212" unicode="&#x212;" horiz-adv-x="689" 
d="M388 660q118 0 183.5 -55.5t65.5 -147.5q0 -101 -65 -154t-183 -53l-16 -9h-131v-241h-169v660h315zM364 363q50 0 75 20t25 64q0 43 -25 63t-75 20h-122v-167h122zM465 327l211 -327h-190l-169 289zM498 715h-109q-1 30 -15.5 49t-44.5 19q-29 0 -44 -19t-16 -49h-109
q0 76 46 119.5t123 43.5q78 0 123.5 -43.5t45.5 -119.5z" />
    <glyph glyph-name="uni0213" unicode="&#x213;" horiz-adv-x="430" 
d="M61 0v500h150l7 -108q19 56 56.5 87t95.5 31q19 0 32.5 -3t21.5 -8l-17 -140q-10 4 -25.5 6.5t-37.5 2.5q-30 0 -56 -13t-41.5 -38.5t-15.5 -64.5v-252h-170zM412 555h-109q-1 30 -15.5 49t-44.5 19q-29 0 -44 -19t-16 -49h-109q0 76 46 119.5t123 43.5q78 0 123.5 -43.5
t45.5 -119.5z" />
    <glyph glyph-name="uni0214" unicode="&#x214;" horiz-adv-x="710" 
d="M650 660v-391q0 -140 -74.5 -209.5t-220.5 -69.5q-145 0 -220 69.5t-75 209.5v391h173v-394q0 -71 30.5 -106t91.5 -35q62 0 92.5 35t30.5 106v394h172zM249 876l61 -163h-123l-89 163h151zM473 876l61 -163h-124l-89 163h152z" />
    <glyph glyph-name="uni0215" unicode="&#x215;" horiz-adv-x="619" 
d="M230 -10q-51 0 -89.5 17.5t-60.5 56.5t-22 102v334h170v-294q0 -48 19 -67t54 -19q18 0 34 6.5t28 20t18.5 35t6.5 50.5v268h170v-500h-152l-5 94q-24 -53 -67 -78.5t-104 -25.5zM267 561h-118l-95 173h144zM479 561h-118l-95 173h144z" />
    <glyph glyph-name="uni0216" unicode="&#x216;" horiz-adv-x="710" 
d="M650 660v-391q0 -140 -74.5 -209.5t-220.5 -69.5q-145 0 -220 69.5t-75 209.5v391h173v-394q0 -71 30.5 -106t91.5 -35q62 0 92.5 35t30.5 106v394h172zM524 705h-109q-1 30 -15.5 49t-44.5 19q-29 0 -44 -19t-16 -49h-109q0 76 46 119.5t123 43.5q78 0 123.5 -43.5
t45.5 -119.5z" />
    <glyph glyph-name="uni0217" unicode="&#x217;" horiz-adv-x="619" 
d="M230 -10q-51 0 -89.5 17.5t-60.5 56.5t-22 102v334h170v-294q0 -48 19 -67t54 -19q18 0 34 6.5t28 20t18.5 35t6.5 50.5v268h170v-500h-152l-5 94q-24 -53 -67 -78.5t-104 -25.5zM474 551h-109q-1 30 -15.5 49t-44.5 19q-29 0 -44 -19t-16 -49h-109q0 76 46 119.5
t123 43.5q78 0 123.5 -43.5t45.5 -119.5z" />
    <glyph glyph-name="uni0218" unicode="&#x218;" horiz-adv-x="645" 
d="M331 670q92 0 162.5 -28.5t122.5 -83.5l-83 -111q-43 45 -92.5 67.5t-112.5 22.5q-37 0 -60 -8t-33 -22t-10 -32q0 -21 19.5 -35.5t63.5 -24.5l111 -25q99 -23 145 -67t46 -117q0 -70 -36 -118.5t-99 -73t-144 -24.5q-66 0 -126 14.5t-108 41.5t-81 62l83 115
q25 -29 61.5 -51.5t80 -35.5t88.5 -13q35 0 58.5 7t34.5 21t11 33q0 21 -15 35.5t-57 24.5l-122 27q-56 13 -99.5 34.5t-68.5 58t-25 91.5q0 62 34 110.5t98 76.5t153 28zM411 -60l-71 -181h-110l32 181h149z" />
    <glyph glyph-name="uni0219" unicode="&#x219;" horiz-adv-x="534" 
d="M271 -10q-75 0 -139.5 24.5t-106.5 70.5l80 94q25 -32 66.5 -53.5t92.5 -21.5q31 0 51 9t20 28q0 14 -10 22.5t-40 14.5l-70 14q-94 19 -133.5 56.5t-39.5 98.5q0 41 25 78.5t77 61t133 23.5q76 0 134 -22t92 -64l-81 -92q-24 30 -62 47t-76 17q-24 0 -40.5 -4.5
t-24.5 -12.5t-8 -20q0 -13 12.5 -22.5t46.5 -16.5l91 -18q77 -14 111 -51t34 -89q0 -49 -26 -88t-78 -61.5t-131 -22.5zM357 -60l-71 -181h-110l32 181h149z" />
    <glyph glyph-name="uni021A" unicode="&#x21a;" horiz-adv-x="653" 
d="M628 660v-133h-215v-527h-172v527h-216v133h603zM409 -60l-71 -181h-110l32 181h149z" />
    <glyph glyph-name="uni021B" unicode="&#x21b;" horiz-adv-x="437" 
d="M270 659v-481q0 -36 17.5 -51.5t48.5 -15.5q24 0 41.5 5.5t31.5 16.5l18 -105q-25 -18 -63 -28t-78 -10q-57 0 -98.5 16t-64 51t-23.5 93v462zM419 500v-121h-405v121h405zM340 -60l-71 -181h-110l32 181h149z" />
    <glyph glyph-name="uni022A" unicode="&#x22a;" horiz-adv-x="737" 
d="M369 670q100 0 172.5 -40.5t111.5 -116.5t39 -183t-39 -183t-111.5 -116.5t-172.5 -40.5t-173 40.5t-112 116.5t-39 183t39 183t112 116.5t173 40.5zM369 535q-48 0 -81 -23t-50 -68.5t-17 -113.5q0 -67 17 -113t50 -69t81 -23t80.5 23t49.5 69t17 113q0 68 -17 113.5
t-49.5 68.5t-80.5 23zM258 870q41 0 63.5 -20t22.5 -57q0 -36 -22.5 -56.5t-63.5 -20.5q-39 0 -61.5 20.5t-22.5 56.5q0 37 22.5 57t61.5 20zM478 870q40 0 63 -20t23 -57q0 -36 -23 -56.5t-63 -20.5q-39 0 -61.5 20.5t-22.5 56.5q0 37 22.5 57t61.5 20zM551 1024v-105h-364
v105h364z" />
    <glyph glyph-name="uni022B" unicode="&#x22b;" horiz-adv-x="599" 
d="M299 510q79 0 138.5 -30.5t93 -89t33.5 -140.5t-33.5 -140.5t-93 -89t-138.5 -30.5q-77 0 -137 30.5t-93.5 89t-33.5 140.5t33.5 140.5t93.5 89t137 30.5zM299 389q-29 0 -50 -14t-32 -45t-11 -80t11 -79.5t32 -45t50 -14.5q30 0 51 14.5t32 45t11 79.5t-11 80t-32 45
t-51 14zM188 710q41 0 63.5 -20t22.5 -57q0 -36 -22.5 -56.5t-63.5 -20.5q-39 0 -61.5 20.5t-22.5 56.5q0 37 22.5 57t61.5 20zM408 710q40 0 63 -20t23 -57q0 -36 -23 -56.5t-63 -20.5q-39 0 -61.5 20.5t-22.5 56.5q0 37 22.5 57t61.5 20zM481 864v-105h-364v105h364z" />
    <glyph glyph-name="uni022C" unicode="&#x22c;" horiz-adv-x="737" 
d="M369 670q100 0 172.5 -40.5t111.5 -116.5t39 -183t-39 -183t-111.5 -116.5t-172.5 -40.5t-173 40.5t-112 116.5t-39 183t39 183t112 116.5t173 40.5zM369 535q-48 0 -81 -23t-50 -68.5t-17 -113.5q0 -67 17 -113t50 -69t81 -23t80.5 23t49.5 69t17 113q0 68 -17 113.5
t-49.5 68.5t-80.5 23zM567 878q-2 -53 -18.5 -88.5t-44 -53t-60.5 -17.5q-28 0 -48.5 8.5t-35.5 20t-28 20t-28 8.5q-17 0 -26 -14t-12 -42h-96q3 80 39 119.5t92 39.5q27 0 46 -8.5t33 -20t26.5 -20t26.5 -8.5q18 0 26.5 14t11.5 42h96zM550 1040v-105h-364v105h364z" />
    <glyph glyph-name="uni022D" unicode="&#x22d;" horiz-adv-x="599" 
d="M299 510q79 0 138.5 -30.5t93 -89t33.5 -140.5t-33.5 -140.5t-93 -89t-138.5 -30.5q-77 0 -137 30.5t-93.5 89t-33.5 140.5t33.5 140.5t93.5 89t137 30.5zM299 389q-29 0 -50 -14t-32 -45t-11 -80t11 -79.5t32 -45t50 -14.5q30 0 51 14.5t32 45t11 79.5t-11 80t-32 45
t-51 14zM497 718q-2 -53 -18.5 -88.5t-44 -53t-60.5 -17.5q-28 0 -48.5 8.5t-35.5 20t-28 20t-28 8.5q-17 0 -26 -14t-12 -42h-96q3 80 39 119.5t92 39.5q27 0 46 -8.5t33 -20t26.5 -20t26.5 -8.5q18 0 26.5 14t11.5 42h96zM481 880v-105h-364v105h364z" />
    <glyph glyph-name="uni0230" unicode="&#x230;" horiz-adv-x="737" 
d="M369 670q100 0 172.5 -40.5t111.5 -116.5t39 -183t-39 -183t-111.5 -116.5t-172.5 -40.5t-173 40.5t-112 116.5t-39 183t39 183t112 116.5t173 40.5zM369 535q-48 0 -81 -23t-50 -68.5t-17 -113.5q0 -67 17 -113t50 -69t81 -23t80.5 23t49.5 69t17 113q0 68 -17 113.5
t-49.5 68.5t-80.5 23zM369 882q46 0 69.5 -20.5t23.5 -59.5t-23.5 -60t-69.5 -21q-44 0 -67.5 21t-23.5 60t23.5 59.5t67.5 20.5zM552 1032v-105h-364v105h364z" />
    <glyph glyph-name="uni0231" unicode="&#x231;" horiz-adv-x="599" 
d="M299 510q79 0 138.5 -30.5t93 -89t33.5 -140.5t-33.5 -140.5t-93 -89t-138.5 -30.5q-77 0 -137 30.5t-93.5 89t-33.5 140.5t33.5 140.5t93.5 89t137 30.5zM299 389q-29 0 -50 -14t-32 -45t-11 -80t11 -79.5t32 -45t50 -14.5q30 0 51 14.5t32 45t11 79.5t-11 80t-32 45
t-51 14zM299 722q46 0 69.5 -20.5t23.5 -59.5t-23.5 -60t-69.5 -21q-44 0 -67.5 21t-23.5 60t23.5 59.5t67.5 20.5zM483 872v-105h-364v105h364z" />
    <glyph glyph-name="uni0232" unicode="&#x232;" horiz-adv-x="657" 
d="M647 660l-233 -419v-241h-172v241l-233 419h178l93 -181l49 -110l50 110l93 181h175zM510 826v-105h-364v105h364z" />
    <glyph glyph-name="uni0233" unicode="&#x233;" horiz-adv-x="563" 
d="M564 500l-182 -500q-28 -79 -61 -126t-78 -68t-108 -21q-42 0 -77 9t-61 25l34 115q18 -13 38 -18.5t51 -5.5q29 0 47.5 10t29.5 38l13 31l-58 136l-150 375h187l77 -285l24 -106l28 110l77 281h169zM479 670v-105h-364v105h364z" />
    <glyph glyph-name="uni0237" unicode="&#x237;" horiz-adv-x="291" 
d="M231 500v-528q0 -68 -23.5 -109t-66.5 -59.5t-104 -18.5q-40 0 -73 8.5t-58 23.5l24 110q11 -8 27 -13.5t37 -5.5q30 0 48.5 17.5t18.5 61.5v513h170z" />
    <glyph glyph-name="uni0241" unicode="&#x241;" horiz-adv-x="610" 
d="M320 670q77 0 137.5 -26.5t95 -76.5t34.5 -119q0 -77 -27 -126t-72.5 -76.5t-101.5 -39.5v-206h-166v300q68 6 107.5 25t56.5 49.5t17 71.5q0 26 -12.5 45.5t-33.5 30t-49 10.5q-51 0 -82 -31t-39 -92l-164 56q13 59 48 105.5t96 73t155 26.5z" />
    <glyph glyph-name="uni0242" unicode="&#x242;" horiz-adv-x="553" 
d="M281 511q74 0 132 -20.5t91.5 -62t33.5 -103.5q0 -63 -26 -103.5t-68.5 -62.5t-93.5 -31v-128h-170v201q68 8 105.5 21t53 33t15.5 47q0 35 -20.5 53t-64.5 18q-43 0 -66.5 -25.5t-32.5 -71.5l-165 53q12 52 45 93t90 65t141 24z" />
    <glyph glyph-name="uni0259" unicode="&#x259;" 
d="M284 -10q-79 0 -134.5 30.5t-84.5 84t-29 122.5q0 13 1 26t3 26h394v-79h-320l83 47q-1 -8 -1.5 -15t-0.5 -13q0 -52 24 -81t67 -29q47 0 71.5 33.5t24.5 106.5q0 51 -11.5 82t-33.5 45t-56 14q-36 0 -58.5 -18.5t-33.5 -47.5l-142 42q17 45 50.5 77t81.5 49.5t106 17.5
q84 0 141.5 -30.5t87.5 -89t30 -140.5q0 -123 -68 -191.5t-192 -68.5z" />
    <glyph glyph-name="uni02B9" unicode="&#x2b9;" horiz-adv-x="600" 
d="M248 678l-88 -277h-119l58 277h149z" />
    <glyph glyph-name="uni02BA" unicode="&#x2ba;" horiz-adv-x="475" 
d="M454 678l-88 -277h-119l58 277h149zM248 678l-88 -277h-119l58 277h149z" />
    <glyph glyph-name="uni02BB" unicode="&#x2bb;" horiz-adv-x="600" 
d="M209 772l-36 -209h-142l71 209h107z" />
    <glyph glyph-name="uni02BC" unicode="&#x2bc;" horiz-adv-x="600" 
d="M150 690q37 0 61 -17t35.5 -44.5t11.5 -61.5q0 -45 -19.5 -86.5t-51 -73t-68.5 -47.5l-69 51q28 11 51.5 28t41 37t26.5 41l-5 3q-5 -4 -13 -6t-21 -2q-18 0 -36.5 9t-31 27t-12.5 46q0 32 14 53t37 32t49 11z" />
    <glyph glyph-name="uni02BE" unicode="&#x2be;" horiz-adv-x="368" 
d="M129 712q70 0 110.5 -38t40.5 -100q0 -61 -40.5 -99.5t-110.5 -38.5h-36v79h39q28 0 45 16t17 43t-17 43t-45 16h-39v79h36z" />
    <glyph glyph-name="uni02BF" unicode="&#x2bf;" horiz-adv-x="368" 
d="M239 436q-70 0 -110.5 38t-40.5 100t40.5 100t110.5 38h36v-79h-39q-27 0 -44.5 -16t-17.5 -43t17.5 -43t44.5 -16h39v-79h-36z" />
    <glyph glyph-name="circumflex" unicode="&#x2c6;" horiz-adv-x="500" 
d="M441 559h-122l-69 88l-69 -88h-122l109 173h164z" />
    <glyph glyph-name="caron" unicode="&#x2c7;" horiz-adv-x="500" 
d="M442 738l-109 -173h-165l-109 173h123l68 -89l69 89h123z" />
    <glyph glyph-name="uni02C8" unicode="&#x2c8;" horiz-adv-x="247" 
d="M65 712h117v-266h-117v266z" />
    <glyph glyph-name="uni02C9" unicode="&#x2c9;" horiz-adv-x="500" 
d="M432 674v-105h-364v105h364z" />
    <glyph glyph-name="uni02CA" unicode="&#x2ca;" horiz-adv-x="600" 
d="M254 738h158l-101 -173h-124z" />
    <glyph glyph-name="uni02CB" unicode="&#x2cb;" horiz-adv-x="560" 
d="M326 738l67 -173h-124l-101 173h158z" />
    <glyph glyph-name="uni02CC" unicode="&#x2cc;" horiz-adv-x="247" 
d="M65 60h117v-266h-117v266z" />
    <glyph glyph-name="breve" unicode="&#x2d8;" horiz-adv-x="500" 
d="M419 718q0 -76 -45.5 -119.5t-123.5 -43.5q-77 0 -123 43.5t-46 119.5h109q1 -30 16 -49t44 -19q30 0 44.5 19t15.5 49h109z" />
    <glyph glyph-name="dotaccent" unicode="&#x2d9;" horiz-adv-x="500" 
d="M249 722q46 0 69.5 -20.5t23.5 -59.5t-23.5 -60t-69.5 -21q-44 0 -67.5 21t-23.5 60t23.5 59.5t67.5 20.5z" />
    <glyph glyph-name="ring" unicode="&#x2da;" horiz-adv-x="500" 
d="M251 802q63 0 101 -34t38 -91q0 -58 -38 -92t-101 -34t-101.5 34t-38.5 92q0 57 38.5 91t101.5 34zM251 729q-24 0 -39 -14t-15 -38t15 -38.5t39 -14.5t38.5 14.5t14.5 38.5t-14.5 38t-38.5 14z" />
    <glyph glyph-name="ogonek" unicode="&#x2db;" horiz-adv-x="500" 
d="M270 -215q-63 0 -98.5 30t-35.5 81q0 59 41.5 92t114.5 46l67 -22q-41 -13 -65.5 -26t-35.5 -27.5t-11 -33.5q0 -21 14.5 -32.5t39.5 -11.5q13 0 25 2.5t21 6.5l17 -85q-19 -11 -41.5 -15.5t-52.5 -4.5z" />
    <glyph glyph-name="tilde" unicode="&#x2dc;" horiz-adv-x="500" 
d="M448 718q-2 -53 -18.5 -88.5t-44 -53t-60.5 -17.5q-28 0 -48.5 8.5t-35.5 20t-28 20t-28 8.5q-17 0 -26 -14t-12 -42h-96q3 80 39 119.5t92 39.5q27 0 46 -8.5t33 -20t26.5 -20t26.5 -8.5q18 0 26.5 14t11.5 42h96z" />
    <glyph glyph-name="hungarumlaut" unicode="&#x2dd;" horiz-adv-x="500" 
d="M250 565l69 173h144l-95 -173h-118zM38 565l69 173h144l-95 -173h-118z" />
    <glyph glyph-name="gravecomb" unicode="&#x300;" horiz-adv-x="0" 
d="M0 738l67 -173h-124l-101 173h158z" />
    <glyph glyph-name="acutecomb" unicode="&#x301;" horiz-adv-x="0" 
d="M-10 738h158l-101 -173h-124z" />
    <glyph glyph-name="uni0302" unicode="&#x302;" horiz-adv-x="0" 
d="M191 559h-122l-69 88l-69 -88h-122l109 173h164z" />
    <glyph glyph-name="tildecomb" unicode="&#x303;" horiz-adv-x="0" 
d="M198 718q-2 -53 -18.5 -88.5t-44 -53t-60.5 -17.5q-28 0 -48.5 8.5t-35.5 20t-28 20t-28 8.5q-17 0 -26 -14t-12 -42h-96q3 80 39 119.5t92 39.5q27 0 46 -8.5t33 -20t26.5 -20t26.5 -8.5q18 0 26.5 14t11.5 42h96z" />
    <glyph glyph-name="uni0304" unicode="&#x304;" horiz-adv-x="0" 
d="M182 674v-105h-364v105h364z" />
    <glyph glyph-name="uni0306" unicode="&#x306;" horiz-adv-x="0" 
d="M169 718q0 -76 -45.5 -119.5t-123.5 -43.5q-77 0 -123 43.5t-46 119.5h109q1 -30 16 -49t44 -19q30 0 44.5 19t15.5 49h109z" />
    <glyph glyph-name="uni0307" unicode="&#x307;" horiz-adv-x="0" 
d="M0 722q46 0 69.5 -20.5t23.5 -59.5t-23.5 -60t-69.5 -21q-44 0 -67.5 21t-23.5 60t23.5 59.5t67.5 20.5z" />
    <glyph glyph-name="uni0308" unicode="&#x308;" horiz-adv-x="0" 
d="M-111 710q41 0 63.5 -20t22.5 -57q0 -36 -22.5 -56.5t-63.5 -20.5q-39 0 -61.5 20.5t-22.5 56.5q0 37 22.5 57t61.5 20zM109 710q40 0 63 -20t23 -57q0 -36 -23 -56.5t-63 -20.5q-39 0 -61.5 20.5t-22.5 56.5q0 37 22.5 57t61.5 20z" />
    <glyph glyph-name="hookabovecomb" unicode="&#x309;" horiz-adv-x="0" 
d="M281 544l-37 52q29 13 41.5 25.5t12.5 28.5q0 14 -9 23.5t-26 9.5q-13 0 -22.5 -7.5t-16.5 -21.5l-77 38q12 40 46.5 61.5t82.5 21.5q32 0 59.5 -12t44 -35.5t16.5 -56.5q0 -36 -17 -61t-43.5 -41t-54.5 -25z" />
    <glyph glyph-name="uni030A" unicode="&#x30a;" horiz-adv-x="0" 
d="M-1 802q63 0 101 -34t38 -91q0 -58 -38 -92t-101 -34t-101.5 34t-38.5 92q0 57 38.5 91t101.5 34zM-1 729q-24 0 -39 -14t-15 -38t15 -38.5t39 -14.5t38.5 14.5t14.5 38.5t-14.5 38t-38.5 14z" />
    <glyph glyph-name="uni030B" unicode="&#x30b;" horiz-adv-x="0" 
d="M34 565l69 173h144l-95 -173h-118zM-178 565l69 173h144l-95 -173h-118z" />
    <glyph glyph-name="uni030C" unicode="&#x30c;" horiz-adv-x="0" 
d="M188 738l-109 -173h-165l-109 173h123l68 -89l69 89h123z" />
    <glyph glyph-name="uni030F" unicode="&#x30f;" horiz-adv-x="0" 
d="M-38 565h-118l-95 173h144zM174 565h-118l-95 173h144z" />
    <glyph glyph-name="uni0311" unicode="&#x311;" horiz-adv-x="0" 
d="M169 555h-109q-1 30 -15.5 49t-44.5 19q-29 0 -44 -19t-16 -49h-109q0 76 46 119.5t123 43.5q78 0 123.5 -43.5t45.5 -119.5z" />
    <glyph glyph-name="uni0312" unicode="&#x312;" horiz-adv-x="0" 
d="M383 772l-36 -209h-142l71 209h107z" />
    <glyph glyph-name="uni031B" unicode="&#x31b;" horiz-adv-x="0" 
d="M269 410v90q31 0 49 25.5t18 84.5h116q0 -103 -48.5 -151.5t-134.5 -48.5z" />
    <glyph glyph-name="dotbelowcomb" unicode="&#x323;" horiz-adv-x="0" 
d="M0 -222q-44 0 -67.5 20.5t-23.5 59.5t23.5 60t67.5 21q46 0 69.5 -21t23.5 -60t-23.5 -59.5t-69.5 -20.5z" />
    <glyph glyph-name="uni0324" unicode="&#x324;" horiz-adv-x="0" 
d="M-111 -56q41 0 63.5 -20t22.5 -57q0 -36 -22.5 -56.5t-63.5 -20.5q-39 0 -61.5 20.5t-22.5 56.5q0 37 22.5 57t61.5 20zM109 -56q40 0 63 -20t23 -57q0 -36 -23 -56.5t-63 -20.5q-39 0 -61.5 20.5t-22.5 56.5q0 37 22.5 57t61.5 20z" />
    <glyph glyph-name="uni0326" unicode="&#x326;" horiz-adv-x="0" 
d="M86 -60l-71 -181h-110l32 181h149z" />
    <glyph glyph-name="uni0327" unicode="&#x327;" horiz-adv-x="0" 
d="M-77 10l41 27q78 -11 115 -42.5t37 -84.5q0 -56 -37.5 -90.5t-102.5 -34.5q-39 0 -62 8.5t-41 20.5l28 81q12 -7 26 -12.5t34 -5.5q26 0 42 15t16 42q0 23 -21 41t-75 35z" />
    <glyph glyph-name="uni0328" unicode="&#x328;" horiz-adv-x="0" 
d="M-89 -215q-63 0 -98.5 30t-35.5 81q0 59 41.5 92t114.5 46l67 -22q-41 -13 -65.5 -26t-35.5 -27.5t-11 -33.5q0 -21 14.5 -32.5t39.5 -11.5q13 0 25 2.5t21 6.5l17 -85q-19 -11 -41.5 -15.5t-52.5 -4.5z" />
    <glyph glyph-name="uni032E" unicode="&#x32e;" horiz-adv-x="0" 
d="M169 -55q0 -76 -45.5 -119.5t-123.5 -43.5q-77 0 -123 43.5t-46 119.5h109q1 -30 16 -49t44 -19q30 0 44.5 19t15.5 49h109z" />
    <glyph glyph-name="uni0331" unicode="&#x331;" horiz-adv-x="0" 
d="M182 -69v-105h-364v105h364z" />
    <glyph glyph-name="uni0335" unicode="&#x335;" horiz-adv-x="0" 
d="M235 379v-97h-470v97h470z" />
    <glyph glyph-name="uni0338" unicode="&#x338;" horiz-adv-x="0" 
d="M46 -25l443 549h67l-443 -549h-67z" />
    <glyph glyph-name="uni03A9" unicode="&#x3a9;" horiz-adv-x="767" 
d="M54 0v128h218l-21 -18q-95 27 -143 94t-48 165q0 90 39 158t112 105.5t173 37.5t172.5 -37.5t111.5 -105.5t39 -158q0 -98 -48 -165t-144 -94l-20 18h218v-128h-290v130q56 9 84.5 64.5t28.5 143.5q0 65 -18 109.5t-51.5 67.5t-82.5 23t-83 -23t-52 -67.5t-18 -109.5
q0 -58 13 -103t38 -72t62 -33v-130h-290z" />
    <glyph glyph-name="uni03BC" unicode="&#x3bc;" horiz-adv-x="621" 
d="M61 -210v710h170v-291q0 -48 18.5 -68.5t53.5 -20.5q26 0 45.5 12t31 38t11.5 68v262h170v-500h-150l-6 91q-21 -50 -58.5 -75t-85.5 -25q-21 0 -40 5t-34 17l44 62v-285h-170z" />
    <glyph glyph-name="pi" unicode="&#x3c0;" horiz-adv-x="789" 
d="M144 0v382h-121v118h736v-118h-132v-196q0 -26 10 -43t31.5 -24.5t55.5 -4.5l-16 -117q-98 -6 -152.5 9t-76.5 51t-22 92v233h-143v-382h-170z" />
    <glyph glyph-name="uni1E08" unicode="&#x1e08;" horiz-adv-x="681" 
d="M658 189q-19 -69 -61 -113.5t-100 -65t-128 -20.5q-100 0 -173 40.5t-112 116.5t-39 183t39 183t112 116.5t172 40.5q69 0 127 -19.5t98 -59.5t57 -103l-151 -61q-14 62 -45.5 85t-79.5 23q-47 0 -81.5 -23t-53 -68.5t-18.5 -113.5q0 -67 17 -113t51.5 -69t85.5 -23
q48 0 81.5 26.5t45.5 81.5zM283 10l41 27q78 -11 115 -42.5t37 -84.5q0 -56 -37.5 -90.5t-102.5 -34.5q-39 0 -62 8.5t-41 20.5l28 81q12 -7 26 -12.5t34 -5.5q26 0 42 15t16 42q0 23 -21 41t-75 35zM351 886h152l-89 -163h-124z" />
    <glyph glyph-name="uni1E09" unicode="&#x1e09;" horiz-adv-x="567" 
d="M298 510q76 0 126.5 -21.5t79 -57t35.5 -76.5l-157 -52q-7 43 -25.5 64.5t-53.5 21.5q-32 0 -53.5 -14.5t-32.5 -46t-11 -80.5t12 -79.5t34 -44t52 -13.5q25 0 41.5 9.5t27.5 27.5t14 44l153 -49q-7 -44 -37.5 -78.5t-80.5 -54.5t-117 -20q-82 0 -143 30.5t-94 89
t-33 140.5t33 140.5t92.5 89t137.5 30.5zM222 10l41 27q78 -11 115 -42.5t37 -84.5q0 -56 -37.5 -90.5t-102.5 -34.5q-39 0 -62 8.5t-41 20.5l28 81q12 -7 26 -12.5t34 -5.5q26 0 42 15t16 42q0 23 -21 41t-75 35zM285 738h158l-101 -173h-124z" />
    <glyph glyph-name="uni1E0C" unicode="&#x1e0c;" horiz-adv-x="718" 
d="M353 660q155 0 237.5 -86t82.5 -244t-82.5 -244t-237.5 -86h-280v660h280zM336 130q84 0 122.5 50.5t38.5 149.5t-38.5 149.5t-122.5 50.5h-91v-400h91zM337 -222q-44 0 -67.5 20.5t-23.5 59.5t23.5 60t67.5 21q46 0 69.5 -21t23.5 -60t-23.5 -59.5t-69.5 -20.5z" />
    <glyph glyph-name="uni1E0D" unicode="&#x1e0d;" horiz-adv-x="627" 
d="M245 -10q-62 0 -108.5 30.5t-72 88.5t-25.5 139q0 84 26.5 142t74 89t109.5 31q68 0 109.5 -41.5t53.5 -105.5l-16 -21v370h170v-712h-152l-11 170l20 -15q-6 -50 -30.5 -87t-62 -57.5t-85.5 -20.5zM304 115q29 0 49.5 15.5t31.5 46.5t11 76q0 42 -10.5 71.5t-31 45
t-49.5 15.5q-44 0 -69.5 -32.5t-25.5 -102.5t25 -102.5t69 -32.5zM308 -222q-44 0 -67.5 20.5t-23.5 59.5t23.5 60t67.5 21q46 0 69.5 -21t23.5 -60t-23.5 -59.5t-69.5 -20.5z" />
    <glyph glyph-name="uni1E0E" unicode="&#x1e0e;" horiz-adv-x="718" 
d="M353 660q155 0 237.5 -86t82.5 -244t-82.5 -244t-237.5 -86h-280v660h280zM336 130q84 0 122.5 50.5t38.5 149.5t-38.5 149.5t-122.5 50.5h-91v-400h91zM519 -69v-105h-364v105h364z" />
    <glyph glyph-name="uni1E0F" unicode="&#x1e0f;" horiz-adv-x="627" 
d="M245 -10q-62 0 -108.5 30.5t-72 88.5t-25.5 139q0 84 26.5 142t74 89t109.5 31q68 0 109.5 -41.5t53.5 -105.5l-16 -21v370h170v-712h-152l-11 170l20 -15q-6 -50 -30.5 -87t-62 -57.5t-85.5 -20.5zM304 115q29 0 49.5 15.5t31.5 46.5t11 76q0 42 -10.5 71.5t-31 45
t-49.5 15.5q-44 0 -69.5 -32.5t-25.5 -102.5t25 -102.5t69 -32.5zM490 -69v-105h-364v105h364z" />
    <glyph glyph-name="uni1E14" unicode="&#x1e14;" horiz-adv-x="631" 
d="M73 0v660h514v-133h-342v-134h272v-125h-272v-135h355v-133h-527zM512 834v-105h-364v105h364zM341 1058l61 -163h-124l-89 163h152z" />
    <glyph glyph-name="uni1E15" unicode="&#x1e15;" 
d="M305 -10q-83 0 -143.5 31t-93.5 89t-33 140t33 140t92.5 89t136.5 31q79 0 134.5 -30.5t84.5 -84t29 -122.5q0 -18 -1 -36t-3 -30h-396v91h321l-81 -31q0 60 -21.5 92t-66.5 32q-32 0 -54.5 -15t-34 -47t-11.5 -82q0 -49 13 -79.5t37 -44t58 -13.5q38 0 60.5 15t33.5 42
l136 -45q-14 -43 -48.5 -72.5t-82 -44.5t-99.5 -15zM476 674v-105h-364v105h364zM305 898l61 -163h-124l-89 163h152z" />
    <glyph glyph-name="uni1E16" unicode="&#x1e16;" horiz-adv-x="631" 
d="M73 0v660h514v-133h-342v-134h272v-125h-272v-135h355v-133h-527zM512 834v-105h-364v105h364zM319 1058h152l-89 -163h-124z" />
    <glyph glyph-name="uni1E17" unicode="&#x1e17;" 
d="M305 -10q-83 0 -143.5 31t-93.5 89t-33 140t33 140t92.5 89t136.5 31q79 0 134.5 -30.5t84.5 -84t29 -122.5q0 -18 -1 -36t-3 -30h-396v91h321l-81 -31q0 60 -21.5 92t-66.5 32q-32 0 -54.5 -15t-34 -47t-11.5 -82q0 -49 13 -79.5t37 -44t58 -13.5q38 0 60.5 15t33.5 42
l136 -45q-14 -43 -48.5 -72.5t-82 -44.5t-99.5 -15zM476 674v-105h-364v105h364zM283 898h152l-89 -163h-124z" />
    <glyph glyph-name="uni1E1C" unicode="&#x1e1c;" horiz-adv-x="631" 
d="M73 0v660h514v-133h-342v-134h272v-125h-272v-135h355v-133h-527zM268 10l41 27q78 -11 115 -42.5t37 -84.5q0 -56 -37.5 -90.5t-102.5 -34.5q-39 0 -62 8.5t-41 20.5l28 81q12 -7 26 -12.5t34 -5.5q26 0 42 15t16 42q0 23 -21 41t-75 35zM499 878q0 -76 -45.5 -119.5
t-123.5 -43.5q-77 0 -123 43.5t-46 119.5h109q1 -30 16 -49t44 -19q30 0 44.5 19t15.5 49h109z" />
    <glyph glyph-name="uni1E1D" unicode="&#x1e1d;" 
d="M305 -10q-83 0 -143.5 31t-93.5 89t-33 140t33 140t92.5 89t136.5 31q79 0 134.5 -30.5t84.5 -84t29 -122.5q0 -18 -1 -36t-3 -30h-396v91h321l-81 -31q0 60 -21.5 92t-66.5 32q-32 0 -54.5 -15t-34 -47t-11.5 -82q0 -49 13 -79.5t37 -44t58 -13.5q38 0 60.5 15t33.5 42
l136 -45q-14 -43 -48.5 -72.5t-82 -44.5t-99.5 -15zM223 10l41 27q78 -11 115 -42.5t37 -84.5q0 -56 -37.5 -90.5t-102.5 -34.5q-39 0 -62 8.5t-41 20.5l28 81q12 -7 26 -12.5t34 -5.5q26 0 42 15t16 42q0 23 -21 41t-75 35zM463 718q0 -76 -45.5 -119.5t-123.5 -43.5
q-77 0 -123 43.5t-46 119.5h109q1 -30 16 -49t44 -19q30 0 44.5 19t15.5 49h109z" />
    <glyph glyph-name="uni1E20" unicode="&#x1e20;" horiz-adv-x="723" 
d="M346 -10q-88 0 -156.5 39t-106.5 115t-38 185q0 107 40 183t114.5 117t175.5 41q112 0 181 -40.5t107 -128.5l-159 -63q-13 51 -46 74t-82 23t-84 -23.5t-53 -69t-18 -112.5q0 -70 18.5 -117t55 -69.5t90.5 -22.5q29 0 53 7t42 20.5t28 34t10 48.5v10h-151v115h297v-356
h-117l-13 155l28 -24q-21 -68 -75.5 -104.5t-140.5 -36.5zM550 834v-105h-364v105h364z" />
    <glyph glyph-name="uni1E21" unicode="&#x1e21;" horiz-adv-x="560" 
d="M382 674v-105h-245v105h245zM545 634l14 -114q-6 2 -12 2.5t-12 0.5q-44 0 -65.5 -21.5t-21.5 -53.5l-60 22q0 41 15 79t46.5 62t79.5 24h7.5t8.5 -1zM373 111q87 0 133.5 -36.5t46.5 -104.5q0 -62 -34 -103t-95.5 -61.5t-145.5 -20.5q-136 0 -196 34t-60 92q0 42 34 68
t113 28l-4 -16q-61 8 -91 36t-30 76t38 78t101 33l62 -29h-16q-39 -2 -55 -13t-16 -27q0 -17 14 -25.5t42 -8.5h159zM279 -105q48 0 79.5 6.5t47.5 18t16 26.5t-11 23.5t-40 8.5h-179q-19 0 -30.5 -10t-11.5 -25q0 -23 34 -35.5t95 -12.5zM285 510q76 0 130 -20t82.5 -57.5
t28.5 -92.5q0 -54 -28.5 -92t-82.5 -57.5t-130 -19.5q-119 0 -180.5 44t-61.5 125q0 55 28.5 92.5t82.5 57.5t131 20zM285 413q-33 0 -53.5 -19t-20.5 -54q0 -34 20.5 -53t53.5 -19q32 0 53 19t21 53q0 35 -21 54t-53 19z" />
    <glyph glyph-name="uni1E24" unicode="&#x1e24;" horiz-adv-x="742" 
d="M669 660v-660h-172v660h172zM245 660v-660h-172v660h172zM589 399v-133h-432v133h432zM371 -222q-44 0 -67.5 20.5t-23.5 59.5t23.5 60t67.5 21q46 0 69.5 -21t23.5 -60t-23.5 -59.5t-69.5 -20.5z" />
    <glyph glyph-name="uni1E25" unicode="&#x1e25;" horiz-adv-x="620" 
d="M61 0v712h170v-303q22 50 63 75.5t95 25.5q52 0 90.5 -20t60.5 -59t22 -98v-333h-170v286q0 54 -19.5 74.5t-51.5 20.5q-24 0 -45 -12t-33 -38t-12 -68v-263h-170zM319 -222q-44 0 -67.5 20.5t-23.5 59.5t23.5 60t67.5 21q46 0 69.5 -21t23.5 -60t-23.5 -59.5
t-69.5 -20.5z" />
    <glyph glyph-name="uni1E2A" unicode="&#x1e2a;" horiz-adv-x="742" 
d="M669 660v-660h-172v660h172zM245 660v-660h-172v660h172zM589 399v-133h-432v133h432zM540 -55q0 -76 -45.5 -119.5t-123.5 -43.5q-77 0 -123 43.5t-46 119.5h109q1 -30 16 -49t44 -19q30 0 44.5 19t15.5 49h109z" />
    <glyph glyph-name="uni1E2B" unicode="&#x1e2b;" horiz-adv-x="620" 
d="M61 0v712h170v-303q22 50 63 75.5t95 25.5q52 0 90.5 -20t60.5 -59t22 -98v-333h-170v286q0 54 -19.5 74.5t-51.5 20.5q-24 0 -45 -12t-33 -38t-12 -68v-263h-170zM488 -55q0 -76 -45.5 -119.5t-123.5 -43.5q-77 0 -123 43.5t-46 119.5h109q1 -30 16 -49t44 -19
q30 0 44.5 19t15.5 49h109z" />
    <glyph glyph-name="uni1E2E" unicode="&#x1e2e;" horiz-adv-x="318" 
d="M245 660v-660h-172v660h172zM48 870q41 0 63.5 -20t22.5 -57q0 -36 -22.5 -56.5t-63.5 -20.5q-39 0 -61.5 20.5t-22.5 56.5q0 37 22.5 57t61.5 20zM268 870q40 0 63 -20t23 -57q0 -36 -23 -56.5t-63 -20.5q-39 0 -61.5 20.5t-22.5 56.5q0 37 22.5 57t61.5 20zM148 1076
h152l-89 -163h-124z" />
    <glyph glyph-name="uni1E2F" unicode="&#x1e2f;" horiz-adv-x="291" 
d="M231 500v-500h-170v500h170zM35 710q41 0 63.5 -20t22.5 -57q0 -36 -22.5 -56.5t-63.5 -20.5q-39 0 -61.5 20.5t-22.5 56.5q0 37 22.5 57t61.5 20zM255 710q40 0 63 -20t23 -57q0 -36 -23 -56.5t-63 -20.5q-39 0 -61.5 20.5t-22.5 56.5q0 37 22.5 57t61.5 20zM135 916
h152l-89 -163h-124z" />
    <glyph glyph-name="uni1E36" unicode="&#x1e36;" horiz-adv-x="602" 
d="M245 133h331v-133h-503v660h172v-527zM336 -222q-44 0 -67.5 20.5t-23.5 59.5t23.5 60t67.5 21q46 0 69.5 -21t23.5 -60t-23.5 -59.5t-69.5 -20.5z" />
    <glyph glyph-name="uni1E37" unicode="&#x1e37;" horiz-adv-x="327" 
d="M229 712v-542q0 -33 11 -47t37 -14q15 0 25 2t24 6l-11 -102q-18 -11 -47 -18t-57 -7q-80 0 -116 37t-36 121v564h170zM195 -222q-44 0 -67.5 20.5t-23.5 59.5t23.5 60t67.5 21q46 0 69.5 -21t23.5 -60t-23.5 -59.5t-69.5 -20.5z" />
    <glyph glyph-name="uni1E3A" unicode="&#x1e3a;" horiz-adv-x="602" 
d="M245 133h331v-133h-503v660h172v-527zM518 -69v-105h-364v105h364z" />
    <glyph glyph-name="uni1E3B" unicode="&#x1e3b;" horiz-adv-x="327" 
d="M333 -69v-105h-276v105h276zM229 712v-542q0 -33 11 -47t37 -14q15 0 25 2t24 6l-11 -102q-18 -11 -47 -18t-57 -7q-80 0 -116 37t-36 121v564h170z" />
    <glyph glyph-name="uni1E42" unicode="&#x1e42;" horiz-adv-x="910" 
d="M837 660v-660h-152v303l5 203h-2l-163 -506h-139l-163 506h-2l5 -203v-303h-153v660h245l104 -336l37 -140h2l38 139l103 337h235zM455 -222q-44 0 -67.5 20.5t-23.5 59.5t23.5 60t67.5 21q46 0 69.5 -21t23.5 -60t-23.5 -59.5t-69.5 -20.5z" />
    <glyph glyph-name="uni1E43" unicode="&#x1e43;" horiz-adv-x="941" 
d="M61 0v500h152l5 -97q24 53 67.5 80t100.5 27q56 0 97 -25t61 -74q16 33 41.5 55t58.5 33t68 11q50 0 88 -19.5t60.5 -59t22.5 -98.5v-333h-170v294q0 48 -18.5 67t-49.5 19q-25 0 -45.5 -12.5t-31.5 -37.5t-11 -63v-267h-170v294q0 48 -19 67t-49 19q-23 0 -43.5 -12
t-32.5 -37.5t-12 -66.5v-264h-170zM472 -222q-44 0 -67.5 20.5t-23.5 59.5t23.5 60t67.5 21q46 0 69.5 -21t23.5 -60t-23.5 -59.5t-69.5 -20.5z" />
    <glyph glyph-name="uni1E44" unicode="&#x1e44;" horiz-adv-x="741" 
d="M668 660v-660h-191l-205 357l-50 98h-1l4 -122v-333h-152v660h191l205 -357l50 -98h1l-4 122v333h152zM372 882q46 0 69.5 -20.5t23.5 -59.5t-23.5 -60t-69.5 -21q-44 0 -67.5 21t-23.5 60t23.5 59.5t67.5 20.5z" />
    <glyph glyph-name="uni1E45" unicode="&#x1e45;" horiz-adv-x="620" 
d="M61 0v500h152l9 -172l-19 19q10 54 35.5 90t64 54.5t86.5 18.5q52 0 90.5 -20t60.5 -59t22 -98v-333h-170v288q0 52 -20 72t-51 20q-24 0 -45 -11.5t-33 -36.5t-12 -67v-265h-170zM313 722q46 0 69.5 -20.5t23.5 -59.5t-23.5 -60t-69.5 -21q-44 0 -67.5 21t-23.5 60
t23.5 59.5t67.5 20.5z" />
    <glyph glyph-name="uni1E46" unicode="&#x1e46;" horiz-adv-x="741" 
d="M668 660v-660h-191l-205 357l-50 98h-1l4 -122v-333h-152v660h191l205 -357l50 -98h1l-4 122v333h152zM383 -222q-44 0 -67.5 20.5t-23.5 59.5t23.5 60t67.5 21q46 0 69.5 -21t23.5 -60t-23.5 -59.5t-69.5 -20.5z" />
    <glyph glyph-name="uni1E47" unicode="&#x1e47;" horiz-adv-x="620" 
d="M61 0v500h152l9 -172l-19 19q10 54 35.5 90t64 54.5t86.5 18.5q52 0 90.5 -20t60.5 -59t22 -98v-333h-170v288q0 52 -20 72t-51 20q-24 0 -45 -11.5t-33 -36.5t-12 -67v-265h-170zM319 -222q-44 0 -67.5 20.5t-23.5 59.5t23.5 60t67.5 21q46 0 69.5 -21t23.5 -60
t-23.5 -59.5t-69.5 -20.5z" />
    <glyph glyph-name="uni1E48" unicode="&#x1e48;" horiz-adv-x="741" 
d="M668 660v-660h-191l-205 357l-50 98h-1l4 -122v-333h-152v660h191l205 -357l50 -98h1l-4 122v333h152zM565 -69v-105h-364v105h364z" />
    <glyph glyph-name="uni1E49" unicode="&#x1e49;" horiz-adv-x="620" 
d="M61 0v500h152l9 -172l-19 19q10 54 35.5 90t64 54.5t86.5 18.5q52 0 90.5 -20t60.5 -59t22 -98v-333h-170v288q0 52 -20 72t-51 20q-24 0 -45 -11.5t-33 -36.5t-12 -67v-265h-170zM501 -69v-105h-364v105h364z" />
    <glyph glyph-name="uni1E4C" unicode="&#x1e4c;" horiz-adv-x="737" 
d="M369 670q100 0 172.5 -40.5t111.5 -116.5t39 -183t-39 -183t-111.5 -116.5t-172.5 -40.5t-173 40.5t-112 116.5t-39 183t39 183t112 116.5t173 40.5zM369 535q-48 0 -81 -23t-50 -68.5t-17 -113.5q0 -67 17 -113t50 -69t81 -23t80.5 23t49.5 69t17 113q0 68 -17 113.5
t-49.5 68.5t-80.5 23zM567 878q-2 -53 -18.5 -88.5t-44 -53t-60.5 -17.5q-28 0 -48.5 8.5t-35.5 20t-28 20t-28 8.5q-17 0 -26 -14t-12 -42h-96q3 80 39 119.5t92 39.5q27 0 46 -8.5t33 -20t26.5 -20t26.5 -8.5q18 0 26.5 14t11.5 42h96zM357 1092h152l-89 -163h-124z" />
    <glyph glyph-name="uni1E4D" unicode="&#x1e4d;" horiz-adv-x="599" 
d="M299 510q79 0 138.5 -30.5t93 -89t33.5 -140.5t-33.5 -140.5t-93 -89t-138.5 -30.5q-77 0 -137 30.5t-93.5 89t-33.5 140.5t33.5 140.5t93.5 89t137 30.5zM299 389q-29 0 -50 -14t-32 -45t-11 -80t11 -79.5t32 -45t50 -14.5q30 0 51 14.5t32 45t11 79.5t-11 80t-32 45
t-51 14zM497 718q-2 -53 -18.5 -88.5t-44 -53t-60.5 -17.5q-28 0 -48.5 8.5t-35.5 20t-28 20t-28 8.5q-17 0 -26 -14t-12 -42h-96q3 80 39 119.5t92 39.5q27 0 46 -8.5t33 -20t26.5 -20t26.5 -8.5q18 0 26.5 14t11.5 42h96zM288 932h152l-89 -163h-124z" />
    <glyph glyph-name="uni1E4E" unicode="&#x1e4e;" horiz-adv-x="737" 
d="M369 670q100 0 172.5 -40.5t111.5 -116.5t39 -183t-39 -183t-111.5 -116.5t-172.5 -40.5t-173 40.5t-112 116.5t-39 183t39 183t112 116.5t173 40.5zM369 535q-48 0 -81 -23t-50 -68.5t-17 -113.5q0 -67 17 -113t50 -69t81 -23t80.5 23t49.5 69t17 113q0 68 -17 113.5
t-49.5 68.5t-80.5 23zM567 878q-2 -53 -18.5 -88.5t-44 -53t-60.5 -17.5q-28 0 -48.5 8.5t-35.5 20t-28 20t-28 8.5q-17 0 -26 -14t-12 -42h-96q3 80 39 119.5t92 39.5q27 0 46 -8.5t33 -20t26.5 -20t26.5 -8.5q18 0 26.5 14t11.5 42h96zM257 1076q41 0 63.5 -20t22.5 -57
q0 -36 -22.5 -56.5t-63.5 -20.5q-39 0 -61.5 20.5t-22.5 56.5q0 37 22.5 57t61.5 20zM477 1076q40 0 63 -20t23 -57q0 -36 -23 -56.5t-63 -20.5q-39 0 -61.5 20.5t-22.5 56.5q0 37 22.5 57t61.5 20z" />
    <glyph glyph-name="uni1E4F" unicode="&#x1e4f;" horiz-adv-x="599" 
d="M299 510q79 0 138.5 -30.5t93 -89t33.5 -140.5t-33.5 -140.5t-93 -89t-138.5 -30.5q-77 0 -137 30.5t-93.5 89t-33.5 140.5t33.5 140.5t93.5 89t137 30.5zM299 389q-29 0 -50 -14t-32 -45t-11 -80t11 -79.5t32 -45t50 -14.5q30 0 51 14.5t32 45t11 79.5t-11 80t-32 45
t-51 14zM497 718q-2 -53 -18.5 -88.5t-44 -53t-60.5 -17.5q-28 0 -48.5 8.5t-35.5 20t-28 20t-28 8.5q-17 0 -26 -14t-12 -42h-96q3 80 39 119.5t92 39.5q27 0 46 -8.5t33 -20t26.5 -20t26.5 -8.5q18 0 26.5 14t11.5 42h96zM188 916q41 0 63.5 -20t22.5 -57
q0 -36 -22.5 -56.5t-63.5 -20.5q-39 0 -61.5 20.5t-22.5 56.5q0 37 22.5 57t61.5 20zM408 916q40 0 63 -20t23 -57q0 -36 -23 -56.5t-63 -20.5q-39 0 -61.5 20.5t-22.5 56.5q0 37 22.5 57t61.5 20z" />
    <glyph glyph-name="uni1E50" unicode="&#x1e50;" horiz-adv-x="737" 
d="M369 670q100 0 172.5 -40.5t111.5 -116.5t39 -183t-39 -183t-111.5 -116.5t-172.5 -40.5t-173 40.5t-112 116.5t-39 183t39 183t112 116.5t173 40.5zM369 535q-48 0 -81 -23t-50 -68.5t-17 -113.5q0 -67 17 -113t50 -69t81 -23t80.5 23t49.5 69t17 113q0 68 -17 113.5
t-49.5 68.5t-80.5 23zM551 834v-105h-364v105h364zM380 1058l61 -163h-124l-89 163h152z" />
    <glyph glyph-name="uni1E51" unicode="&#x1e51;" horiz-adv-x="599" 
d="M299 510q79 0 138.5 -30.5t93 -89t33.5 -140.5t-33.5 -140.5t-93 -89t-138.5 -30.5q-77 0 -137 30.5t-93.5 89t-33.5 140.5t33.5 140.5t93.5 89t137 30.5zM299 389q-29 0 -50 -14t-32 -45t-11 -80t11 -79.5t32 -45t50 -14.5q30 0 51 14.5t32 45t11 79.5t-11 80t-32 45
t-51 14zM481 674v-105h-364v105h364zM310 898l61 -163h-124l-89 163h152z" />
    <glyph glyph-name="uni1E52" unicode="&#x1e52;" horiz-adv-x="737" 
d="M369 670q100 0 172.5 -40.5t111.5 -116.5t39 -183t-39 -183t-111.5 -116.5t-172.5 -40.5t-173 40.5t-112 116.5t-39 183t39 183t112 116.5t173 40.5zM369 535q-48 0 -81 -23t-50 -68.5t-17 -113.5q0 -67 17 -113t50 -69t81 -23t80.5 23t49.5 69t17 113q0 68 -17 113.5
t-49.5 68.5t-80.5 23zM551 834v-105h-364v105h364zM358 1058h152l-89 -163h-124z" />
    <glyph glyph-name="uni1E53" unicode="&#x1e53;" horiz-adv-x="599" 
d="M299 510q79 0 138.5 -30.5t93 -89t33.5 -140.5t-33.5 -140.5t-93 -89t-138.5 -30.5q-77 0 -137 30.5t-93.5 89t-33.5 140.5t33.5 140.5t93.5 89t137 30.5zM299 389q-29 0 -50 -14t-32 -45t-11 -80t11 -79.5t32 -45t50 -14.5q30 0 51 14.5t32 45t11 79.5t-11 80t-32 45
t-51 14zM481 674v-105h-364v105h364zM288 898h152l-89 -163h-124z" />
    <glyph glyph-name="uni1E5A" unicode="&#x1e5a;" horiz-adv-x="689" 
d="M388 660q118 0 183.5 -55.5t65.5 -147.5q0 -101 -65 -154t-183 -53l-16 -9h-131v-241h-169v660h315zM364 363q50 0 75 20t25 64q0 43 -25 63t-75 20h-122v-167h122zM465 327l211 -327h-190l-169 289zM363 -222q-44 0 -67.5 20.5t-23.5 59.5t23.5 60t67.5 21
q46 0 69.5 -21t23.5 -60t-23.5 -59.5t-69.5 -20.5z" />
    <glyph glyph-name="uni1E5B" unicode="&#x1e5b;" horiz-adv-x="430" 
d="M61 0v500h150l7 -108q19 56 56.5 87t95.5 31q19 0 32.5 -3t21.5 -8l-17 -140q-10 4 -25.5 6.5t-37.5 2.5q-30 0 -56 -13t-41.5 -38.5t-15.5 -64.5v-252h-170zM146 -222q-44 0 -67.5 20.5t-23.5 59.5t23.5 60t67.5 21q46 0 69.5 -21t23.5 -60t-23.5 -59.5t-69.5 -20.5z
" />
    <glyph glyph-name="uni1E5E" unicode="&#x1e5e;" horiz-adv-x="689" 
d="M388 660q118 0 183.5 -55.5t65.5 -147.5q0 -101 -65 -154t-183 -53l-16 -9h-131v-241h-169v660h315zM364 363q50 0 75 20t25 64q0 43 -25 63t-75 20h-122v-167h122zM465 327l211 -327h-190l-169 289zM545 -69v-105h-364v105h364z" />
    <glyph glyph-name="uni1E5F" unicode="&#x1e5f;" horiz-adv-x="430" 
d="M288 -69v-105h-284v105h284zM61 0v500h150l7 -108q19 56 56.5 87t95.5 31q19 0 32.5 -3t21.5 -8l-17 -140q-10 4 -25.5 6.5t-37.5 2.5q-30 0 -56 -13t-41.5 -38.5t-15.5 -64.5v-252h-170z" />
    <glyph glyph-name="uni1E60" unicode="&#x1e60;" horiz-adv-x="645" 
d="M331 670q92 0 162.5 -28.5t122.5 -83.5l-83 -111q-43 45 -92.5 67.5t-112.5 22.5q-37 0 -60 -8t-33 -22t-10 -32q0 -21 19.5 -35.5t63.5 -24.5l111 -25q99 -23 145 -67t46 -117q0 -70 -36 -118.5t-99 -73t-144 -24.5q-66 0 -126 14.5t-108 41.5t-81 62l83 115
q25 -29 61.5 -51.5t80 -35.5t88.5 -13q35 0 58.5 7t34.5 21t11 33q0 21 -15 35.5t-57 24.5l-122 27q-56 13 -99.5 34.5t-68.5 58t-25 91.5q0 62 34 110.5t98 76.5t153 28zM329 882q46 0 69.5 -20.5t23.5 -59.5t-23.5 -60t-69.5 -21q-44 0 -67.5 21t-23.5 60t23.5 59.5
t67.5 20.5z" />
    <glyph glyph-name="uni1E61" unicode="&#x1e61;" horiz-adv-x="534" 
d="M271 -10q-75 0 -139.5 24.5t-106.5 70.5l80 94q25 -32 66.5 -53.5t92.5 -21.5q31 0 51 9t20 28q0 14 -10 22.5t-40 14.5l-70 14q-94 19 -133.5 56.5t-39.5 98.5q0 41 25 78.5t77 61t133 23.5q76 0 134 -22t92 -64l-81 -92q-24 30 -62 47t-76 17q-24 0 -40.5 -4.5
t-24.5 -12.5t-8 -20q0 -13 12.5 -22.5t46.5 -16.5l91 -18q77 -14 111 -51t34 -89q0 -49 -26 -88t-78 -61.5t-131 -22.5zM274 722q46 0 69.5 -20.5t23.5 -59.5t-23.5 -60t-69.5 -21q-44 0 -67.5 21t-23.5 60t23.5 59.5t67.5 20.5z" />
    <glyph glyph-name="uni1E62" unicode="&#x1e62;" horiz-adv-x="645" 
d="M331 670q92 0 162.5 -28.5t122.5 -83.5l-83 -111q-43 45 -92.5 67.5t-112.5 22.5q-37 0 -60 -8t-33 -22t-10 -32q0 -21 19.5 -35.5t63.5 -24.5l111 -25q99 -23 145 -67t46 -117q0 -70 -36 -118.5t-99 -73t-144 -24.5q-66 0 -126 14.5t-108 41.5t-81 62l83 115
q25 -29 61.5 -51.5t80 -35.5t88.5 -13q35 0 58.5 7t34.5 21t11 33q0 21 -15 35.5t-57 24.5l-122 27q-56 13 -99.5 34.5t-68.5 58t-25 91.5q0 62 34 110.5t98 76.5t153 28zM325 -222q-44 0 -67.5 20.5t-23.5 59.5t23.5 60t67.5 21q46 0 69.5 -21t23.5 -60t-23.5 -59.5
t-69.5 -20.5z" />
    <glyph glyph-name="uni1E63" unicode="&#x1e63;" horiz-adv-x="534" 
d="M271 -10q-75 0 -139.5 24.5t-106.5 70.5l80 94q25 -32 66.5 -53.5t92.5 -21.5q31 0 51 9t20 28q0 14 -10 22.5t-40 14.5l-70 14q-94 19 -133.5 56.5t-39.5 98.5q0 41 25 78.5t77 61t133 23.5q76 0 134 -22t92 -64l-81 -92q-24 30 -62 47t-76 17q-24 0 -40.5 -4.5
t-24.5 -12.5t-8 -20q0 -13 12.5 -22.5t46.5 -16.5l91 -18q77 -14 111 -51t34 -89q0 -49 -26 -88t-78 -61.5t-131 -22.5zM271 -222q-44 0 -67.5 20.5t-23.5 59.5t23.5 60t67.5 21q46 0 69.5 -21t23.5 -60t-23.5 -59.5t-69.5 -20.5z" />
    <glyph glyph-name="uni1E64" unicode="&#x1e64;" horiz-adv-x="645" 
d="M331 670q92 0 162.5 -28.5t122.5 -83.5l-83 -111q-43 45 -92.5 67.5t-112.5 22.5q-37 0 -60 -8t-33 -22t-10 -32q0 -21 19.5 -35.5t63.5 -24.5l111 -25q99 -23 145 -67t46 -117q0 -70 -36 -118.5t-99 -73t-144 -24.5q-66 0 -126 14.5t-108 41.5t-81 62l83 115
q25 -29 61.5 -51.5t80 -35.5t88.5 -13q35 0 58.5 7t34.5 21t11 33q0 21 -15 35.5t-57 24.5l-122 27q-56 13 -99.5 34.5t-68.5 58t-25 91.5q0 62 34 110.5t98 76.5t153 28zM318 886h152l-89 -163h-124zM329 1098q46 0 69.5 -20.5t23.5 -59.5t-23.5 -60t-69.5 -21
q-44 0 -67.5 21t-23.5 60t23.5 59.5t67.5 20.5z" />
    <glyph glyph-name="uni1E65" unicode="&#x1e65;" horiz-adv-x="534" 
d="M271 -10q-75 0 -139.5 24.5t-106.5 70.5l80 94q25 -32 66.5 -53.5t92.5 -21.5q31 0 51 9t20 28q0 14 -10 22.5t-40 14.5l-70 14q-94 19 -133.5 56.5t-39.5 98.5q0 41 25 78.5t77 61t133 23.5q76 0 134 -22t92 -64l-81 -92q-24 30 -62 47t-76 17q-24 0 -40.5 -4.5
t-24.5 -12.5t-8 -20q0 -13 12.5 -22.5t46.5 -16.5l91 -18q77 -14 111 -51t34 -89q0 -49 -26 -88t-78 -61.5t-131 -22.5zM264 738h158l-101 -173h-124zM274 945q46 0 69.5 -20.5t23.5 -59.5t-23.5 -60t-69.5 -21q-44 0 -67.5 21t-23.5 60t23.5 59.5t67.5 20.5z" />
    <glyph glyph-name="uni1E66" unicode="&#x1e66;" horiz-adv-x="645" 
d="M331 670q92 0 162.5 -28.5t122.5 -83.5l-83 -111q-43 45 -92.5 67.5t-112.5 22.5q-37 0 -60 -8t-33 -22t-10 -32q0 -21 19.5 -35.5t63.5 -24.5l111 -25q99 -23 145 -67t46 -117q0 -70 -36 -118.5t-99 -73t-144 -24.5q-66 0 -126 14.5t-108 41.5t-81 62l83 115
q25 -29 61.5 -51.5t80 -35.5t88.5 -13q35 0 58.5 7t34.5 21t11 33q0 21 -15 35.5t-57 24.5l-122 27q-56 13 -99.5 34.5t-68.5 58t-25 91.5q0 62 34 110.5t98 76.5t153 28zM512 886l-100 -163h-166l-100 163h118l65 -92l65 92h118zM329 1090q46 0 69.5 -20.5t23.5 -59.5
t-23.5 -60t-69.5 -21q-44 0 -67.5 21t-23.5 60t23.5 59.5t67.5 20.5z" />
    <glyph glyph-name="uni1E67" unicode="&#x1e67;" horiz-adv-x="534" 
d="M271 -10q-75 0 -139.5 24.5t-106.5 70.5l80 94q25 -32 66.5 -53.5t92.5 -21.5q31 0 51 9t20 28q0 14 -10 22.5t-40 14.5l-70 14q-94 19 -133.5 56.5t-39.5 98.5q0 41 25 78.5t77 61t133 23.5q76 0 134 -22t92 -64l-81 -92q-24 30 -62 47t-76 17q-24 0 -40.5 -4.5
t-24.5 -12.5t-8 -20q0 -13 12.5 -22.5t46.5 -16.5l91 -18q77 -14 111 -51t34 -89q0 -49 -26 -88t-78 -61.5t-131 -22.5zM462 738l-109 -173h-165l-109 173h123l68 -89l69 89h123zM274 933q46 0 69.5 -20.5t23.5 -59.5t-23.5 -60t-69.5 -21q-44 0 -67.5 21t-23.5 60
t23.5 59.5t67.5 20.5z" />
    <glyph glyph-name="uni1E68" unicode="&#x1e68;" horiz-adv-x="645" 
d="M331 670q92 0 162.5 -28.5t122.5 -83.5l-83 -111q-43 45 -92.5 67.5t-112.5 22.5q-37 0 -60 -8t-33 -22t-10 -32q0 -21 19.5 -35.5t63.5 -24.5l111 -25q99 -23 145 -67t46 -117q0 -70 -36 -118.5t-99 -73t-144 -24.5q-66 0 -126 14.5t-108 41.5t-81 62l83 115
q25 -29 61.5 -51.5t80 -35.5t88.5 -13q35 0 58.5 7t34.5 21t11 33q0 21 -15 35.5t-57 24.5l-122 27q-56 13 -99.5 34.5t-68.5 58t-25 91.5q0 62 34 110.5t98 76.5t153 28zM329 882q46 0 69.5 -20.5t23.5 -59.5t-23.5 -60t-69.5 -21q-44 0 -67.5 21t-23.5 60t23.5 59.5
t67.5 20.5zM325 -222q-44 0 -67.5 20.5t-23.5 59.5t23.5 60t67.5 21q46 0 69.5 -21t23.5 -60t-23.5 -59.5t-69.5 -20.5z" />
    <glyph glyph-name="uni1E69" unicode="&#x1e69;" horiz-adv-x="534" 
d="M271 -10q-75 0 -139.5 24.5t-106.5 70.5l80 94q25 -32 66.5 -53.5t92.5 -21.5q31 0 51 9t20 28q0 14 -10 22.5t-40 14.5l-70 14q-94 19 -133.5 56.5t-39.5 98.5q0 41 25 78.5t77 61t133 23.5q76 0 134 -22t92 -64l-81 -92q-24 30 -62 47t-76 17q-24 0 -40.5 -4.5
t-24.5 -12.5t-8 -20q0 -13 12.5 -22.5t46.5 -16.5l91 -18q77 -14 111 -51t34 -89q0 -49 -26 -88t-78 -61.5t-131 -22.5zM274 722q46 0 69.5 -20.5t23.5 -59.5t-23.5 -60t-69.5 -21q-44 0 -67.5 21t-23.5 60t23.5 59.5t67.5 20.5zM271 -222q-44 0 -67.5 20.5t-23.5 59.5
t23.5 60t67.5 21q46 0 69.5 -21t23.5 -60t-23.5 -59.5t-69.5 -20.5z" />
    <glyph glyph-name="uni1E6C" unicode="&#x1e6c;" horiz-adv-x="653" 
d="M628 660v-133h-215v-527h-172v527h-216v133h603zM327 -222q-44 0 -67.5 20.5t-23.5 59.5t23.5 60t67.5 21q46 0 69.5 -21t23.5 -60t-23.5 -59.5t-69.5 -20.5z" />
    <glyph glyph-name="uni1E6D" unicode="&#x1e6d;" horiz-adv-x="437" 
d="M270 659v-481q0 -36 17.5 -51.5t48.5 -15.5q24 0 41.5 5.5t31.5 16.5l18 -105q-25 -18 -63 -28t-78 -10q-57 0 -98.5 16t-64 51t-23.5 93v462zM419 500v-121h-405v121h405zM254 -222q-44 0 -67.5 20.5t-23.5 59.5t23.5 60t67.5 21q46 0 69.5 -21t23.5 -60t-23.5 -59.5
t-69.5 -20.5z" />
    <glyph glyph-name="uni1E6E" unicode="&#x1e6e;" horiz-adv-x="653" 
d="M628 660v-133h-215v-527h-172v527h-216v133h603zM509 -69v-105h-364v105h364z" />
    <glyph glyph-name="uni1E6F" unicode="&#x1e6f;" horiz-adv-x="437" 
d="M270 659v-481q0 -36 17.5 -51.5t48.5 -15.5q24 0 41.5 5.5t31.5 16.5l18 -105q-25 -18 -63 -28t-78 -10q-57 0 -98.5 16t-64 51t-23.5 93v462zM419 500v-121h-405v121h405zM436 -69v-105h-364v105h364z" />
    <glyph glyph-name="uni1E78" unicode="&#x1e78;" horiz-adv-x="710" 
d="M650 660v-391q0 -140 -74.5 -209.5t-220.5 -69.5q-145 0 -220 69.5t-75 209.5v391h173v-394q0 -71 30.5 -106t91.5 -35q62 0 92.5 35t30.5 106v394h172zM553 868q-2 -53 -18.5 -88.5t-44 -53t-60.5 -17.5q-28 0 -48.5 8.5t-35.5 20t-28 20t-28 8.5q-17 0 -26 -14t-12 -42
h-96q3 80 39 119.5t92 39.5q27 0 46 -8.5t33 -20t26.5 -20t26.5 -8.5q18 0 26.5 14t11.5 42h96zM344 1082h152l-89 -163h-124z" />
    <glyph glyph-name="uni1E79" unicode="&#x1e79;" horiz-adv-x="619" 
d="M230 -10q-51 0 -89.5 17.5t-60.5 56.5t-22 102v334h170v-294q0 -48 19 -67t54 -19q18 0 34 6.5t28 20t18.5 35t6.5 50.5v268h170v-500h-152l-5 94q-24 -53 -67 -78.5t-104 -25.5zM503 714q-2 -53 -18.5 -88.5t-44 -53t-60.5 -17.5q-28 0 -48.5 8.5t-35.5 20t-28 20
t-28 8.5q-17 0 -26 -14t-12 -42h-96q3 80 39 119.5t92 39.5q27 0 46 -8.5t33 -20t26.5 -20t26.5 -8.5q18 0 26.5 14t11.5 42h96zM293 928h152l-89 -163h-124z" />
    <glyph glyph-name="uni1E7A" unicode="&#x1e7a;" horiz-adv-x="710" 
d="M650 660v-391q0 -140 -74.5 -209.5t-220.5 -69.5q-145 0 -220 69.5t-75 209.5v391h173v-394q0 -71 30.5 -106t91.5 -35q62 0 92.5 35t30.5 106v394h172zM537 824v-105h-364v105h364zM244 1032q41 0 63.5 -20t22.5 -57q0 -36 -22.5 -56.5t-63.5 -20.5q-39 0 -61.5 20.5
t-22.5 56.5q0 37 22.5 57t61.5 20zM464 1032q40 0 63 -20t23 -57q0 -36 -23 -56.5t-63 -20.5q-39 0 -61.5 20.5t-22.5 56.5q0 37 22.5 57t61.5 20z" />
    <glyph glyph-name="uni1E7B" unicode="&#x1e7b;" horiz-adv-x="619" 
d="M230 -10q-51 0 -89.5 17.5t-60.5 56.5t-22 102v334h170v-294q0 -48 19 -67t54 -19q18 0 34 6.5t28 20t18.5 35t6.5 50.5v268h170v-500h-152l-5 94q-24 -53 -67 -78.5t-104 -25.5zM487 670v-105h-364v105h364zM194 878q41 0 63.5 -20t22.5 -57q0 -36 -22.5 -56.5
t-63.5 -20.5q-39 0 -61.5 20.5t-22.5 56.5q0 37 22.5 57t61.5 20zM414 878q40 0 63 -20t23 -57q0 -36 -23 -56.5t-63 -20.5q-39 0 -61.5 20.5t-22.5 56.5q0 37 22.5 57t61.5 20z" />
    <glyph glyph-name="Wgrave" unicode="&#x1e80;" horiz-adv-x="997" 
d="M200 0l-190 660h183l112 -521l118 521h156l121 -520l110 520h177l-191 -660h-187l-78 320l-30 161h-2l-29 -161l-77 -320h-193zM509 886l61 -163h-124l-89 163h152z" />
    <glyph glyph-name="wgrave" unicode="&#x1e81;" horiz-adv-x="900" 
d="M716 500h178l-151 -500h-204l-91 307l-88 -307h-203l-152 500h179l84 -369l98 369h168l97 -369zM450 738l67 -173h-124l-101 173h158z" />
    <glyph glyph-name="Wacute" unicode="&#x1e82;" horiz-adv-x="997" 
d="M200 0l-190 660h183l112 -521l118 521h156l121 -520l110 520h177l-191 -660h-187l-78 320l-30 161h-2l-29 -161l-77 -320h-193zM487 886h152l-89 -163h-124z" />
    <glyph glyph-name="wacute" unicode="&#x1e83;" horiz-adv-x="900" 
d="M716 500h178l-151 -500h-204l-91 307l-88 -307h-203l-152 500h179l84 -369l98 369h168l97 -369zM440 738h158l-101 -173h-124z" />
    <glyph glyph-name="Wdieresis" unicode="&#x1e84;" horiz-adv-x="997" 
d="M200 0l-190 660h183l112 -521l118 521h156l121 -520l110 520h177l-191 -660h-187l-78 320l-30 161h-2l-29 -161l-77 -320h-193zM387 870q41 0 63.5 -20t22.5 -57q0 -36 -22.5 -56.5t-63.5 -20.5q-39 0 -61.5 20.5t-22.5 56.5q0 37 22.5 57t61.5 20zM607 870q40 0 63 -20
t23 -57q0 -36 -23 -56.5t-63 -20.5q-39 0 -61.5 20.5t-22.5 56.5q0 37 22.5 57t61.5 20z" />
    <glyph glyph-name="wdieresis" unicode="&#x1e85;" horiz-adv-x="900" 
d="M716 500h178l-151 -500h-204l-91 307l-88 -307h-203l-152 500h179l84 -369l98 369h168l97 -369zM339 710q41 0 63.5 -20t22.5 -57q0 -36 -22.5 -56.5t-63.5 -20.5q-39 0 -61.5 20.5t-22.5 56.5q0 37 22.5 57t61.5 20zM559 710q40 0 63 -20t23 -57q0 -36 -23 -56.5
t-63 -20.5q-39 0 -61.5 20.5t-22.5 56.5q0 37 22.5 57t61.5 20z" />
    <glyph glyph-name="uni1E8E" unicode="&#x1e8e;" horiz-adv-x="657" 
d="M647 660l-233 -419v-241h-172v241l-233 419h178l93 -181l49 -110l50 110l93 181h175zM328 874q46 0 69.5 -20.5t23.5 -59.5t-23.5 -60t-69.5 -21q-44 0 -67.5 21t-23.5 60t23.5 59.5t67.5 20.5z" />
    <glyph glyph-name="uni1E8F" unicode="&#x1e8f;" horiz-adv-x="563" 
d="M564 500l-182 -500q-28 -79 -61 -126t-78 -68t-108 -21q-42 0 -77 9t-61 25l34 115q18 -13 38 -18.5t51 -5.5q29 0 47.5 10t29.5 38l13 31l-58 136l-150 375h187l77 -285l24 -106l28 110l77 281h169zM297 718q46 0 69.5 -20.5t23.5 -59.5t-23.5 -60t-69.5 -21
q-44 0 -67.5 21t-23.5 60t23.5 59.5t67.5 20.5z" />
    <glyph glyph-name="uni1E92" unicode="&#x1e92;" horiz-adv-x="634" 
d="M172 72l-30 58h461v-130h-566v124l421 464l30 -58h-444v130h547v-124zM306 -222q-44 0 -67.5 20.5t-23.5 59.5t23.5 60t67.5 21q46 0 69.5 -21t23.5 -60t-23.5 -59.5t-69.5 -20.5z" />
    <glyph glyph-name="uni1E93" unicode="&#x1e93;" horiz-adv-x="516" 
d="M35 0v104l199 226l53 53l-79 -2h-171v119h438v-104l-196 -224l-55 -55l88 2h172v-119h-449zM251 -222q-44 0 -67.5 20.5t-23.5 59.5t23.5 60t67.5 21q46 0 69.5 -21t23.5 -60t-23.5 -59.5t-69.5 -20.5z" />
    <glyph glyph-name="uni1E97" unicode="&#x1e97;" horiz-adv-x="437" 
d="M270 659v-481q0 -36 17.5 -51.5t48.5 -15.5q24 0 41.5 5.5t31.5 16.5l18 -105q-25 -18 -63 -28t-78 -10q-57 0 -98.5 16t-64 51t-23.5 93v462zM419 500v-121h-405v121h405zM74 862q41 0 63.5 -20t22.5 -57q0 -36 -22.5 -56.5t-63.5 -20.5q-39 0 -61.5 20.5t-22.5 56.5
q0 37 22.5 57t61.5 20zM294 862q40 0 63 -20t23 -57q0 -36 -23 -56.5t-63 -20.5q-39 0 -61.5 20.5t-22.5 56.5q0 37 22.5 57t61.5 20z" />
    <glyph glyph-name="uni1E9E" unicode="&#x1e9e;" horiz-adv-x="705" 
d="M471 -5q-71 0 -114 15t-69 39l47 104q20 -17 44 -26t58 -9q28 0 47.5 10t30 27.5t10.5 39.5q0 37 -25 54.5t-66 17.5h-98v95l147 168h-119q-39 0 -68 -16t-45.5 -46.5t-16.5 -73.5v-394h-171v419q0 75 33 129t94.5 83t143.5 29h313v-128l-192 -216l28 45h29q43 0 83 -18
t65 -56t25 -96q0 -65 -28 -108.5t-76 -65.5t-110 -22z" />
    <glyph glyph-name="uni1EA0" unicode="&#x1ea0;" horiz-adv-x="677" 
d="M673 0h-177l-46 149h-226l-47 -149h-173l232 660h206zM256 266h162l-81 267zM338 -222q-44 0 -67.5 20.5t-23.5 59.5t23.5 60t67.5 21q46 0 69.5 -21t23.5 -60t-23.5 -59.5t-69.5 -20.5z" />
    <glyph glyph-name="uni1EA1" unicode="&#x1ea1;" 
d="M340 317q0 35 -19.5 55.5t-52.5 20.5t-56.5 -16.5t-32.5 -58.5l-144 34q14 72 74 115t169 43q73 0 124.5 -21.5t79 -64t27.5 -104.5v-183q0 -39 35 -39q18 0 29 4l-10 -97q-30 -14 -73 -14q-39 0 -69 12.5t-47 38t-17 64.5v6l19 7q0 -43 -25.5 -72t-66 -43t-84.5 -14
q-51 0 -89 16t-58.5 46.5t-20.5 75.5q0 54 32.5 89.5t102.5 49.5l189 39l-1 -90l-96 -20q-30 -6 -44.5 -17.5t-14.5 -34.5q0 -22 16 -33t38 -11q17 0 32.5 5t27.5 15.5t19 26.5t7 38v132zM281 -222q-44 0 -67.5 20.5t-23.5 59.5t23.5 60t67.5 21q46 0 69.5 -21t23.5 -60
t-23.5 -59.5t-69.5 -20.5z" />
    <glyph glyph-name="uni1EA2" unicode="&#x1ea2;" horiz-adv-x="677" 
d="M673 0h-177l-46 149h-226l-47 -149h-173l232 660h206zM256 266h162l-81 267zM340 700l-37 50q28 12 39.5 24.5t11.5 28.5q0 14 -8.5 23t-24.5 9q-15 0 -24 -7t-15 -21l-78 38q13 39 47 60t82 21q32 0 59 -11.5t43.5 -34.5t16.5 -56q0 -35 -17 -60t-43 -40.5t-52 -23.5z
" />
    <glyph glyph-name="uni1EA3" unicode="&#x1ea3;" 
d="M340 317q0 35 -19.5 55.5t-52.5 20.5t-56.5 -16.5t-32.5 -58.5l-144 34q14 72 74 115t169 43q73 0 124.5 -21.5t79 -64t27.5 -104.5v-183q0 -39 35 -39q18 0 29 4l-10 -97q-30 -14 -73 -14q-39 0 -69 12.5t-47 38t-17 64.5v6l19 7q0 -43 -25.5 -72t-66 -43t-84.5 -14
q-51 0 -89 16t-58.5 46.5t-20.5 75.5q0 54 32.5 89.5t102.5 49.5l189 39l-1 -90l-96 -20q-30 -6 -44.5 -17.5t-14.5 -34.5q0 -22 16 -33t38 -11q17 0 32.5 5t27.5 15.5t19 26.5t7 38v132zM273 544l-37 52q29 13 41.5 25.5t12.5 28.5q0 14 -9 23.5t-26 9.5q-13 0 -22.5 -7.5
t-16.5 -21.5l-77 38q12 40 46.5 61.5t82.5 21.5q32 0 59.5 -12t44 -35.5t16.5 -56.5q0 -36 -17 -61t-43.5 -41t-54.5 -25z" />
    <glyph glyph-name="uni1EA4" unicode="&#x1ea4;" horiz-adv-x="677" 
d="M517 719h-114l-65 84l-65 -84h-113l103 162h151zM541 970h137l-80 -148h-112zM673 0h-177l-46 149h-226l-47 -149h-173l232 660h206zM256 266h162l-81 267z" />
    <glyph glyph-name="uni1EA5" unicode="&#x1ea5;" 
d="M455 559h-113l-65 84l-65 -84h-114l103 162h151zM480 810h136l-80 -148h-112zM340 316q0 37 -18.5 57t-53.5 20q-33 0 -56 -16.5t-31 -57.5l-142 32q12 73 72.5 116t167.5 43q73 0 124.5 -22t78.5 -62.5t27 -98.5v-190q0 -39 38 -39q15 0 25 4l-7 -96q-30 -15 -74 -15
q-40 0 -71 12.5t-48.5 38t-17.5 65.5v10l21 -2q-6 -38 -31.5 -66t-63.5 -43.5t-82 -15.5q-49 0 -86 15.5t-57.5 46t-20.5 72.5q0 56 36 91t102 48l184 37l-1 -75l-96 -21q-33 -7 -48 -21t-15 -37q0 -22 16 -35.5t45 -13.5q16 0 31 4.5t27 14.5t18.5 24.5t6.5 33.5v142z" />
    <glyph glyph-name="uni1EA6" unicode="&#x1ea6;" horiz-adv-x="677" 
d="M517 719h-114l-65 84l-65 -84h-113l103 162h151zM561 970l55 -148h-112l-80 148h137zM673 0h-177l-46 149h-226l-47 -149h-173l232 660h206zM256 266h162l-81 267z" />
    <glyph glyph-name="uni1EA7" unicode="&#x1ea7;" 
d="M455 559h-113l-65 84l-65 -84h-114l103 162h151zM499 810l55 -148h-111l-80 148h136zM340 316q0 37 -18.5 57t-53.5 20q-33 0 -56 -16.5t-31 -57.5l-142 32q12 73 72.5 116t167.5 43q73 0 124.5 -22t78.5 -62.5t27 -98.5v-190q0 -39 38 -39q15 0 25 4l-7 -96
q-30 -15 -74 -15q-40 0 -71 12.5t-48.5 38t-17.5 65.5v10l21 -2q-6 -38 -31.5 -66t-63.5 -43.5t-82 -15.5q-49 0 -86 15.5t-57.5 46t-20.5 72.5q0 56 36 91t102 48l184 37l-1 -75l-96 -21q-33 -7 -48 -21t-15 -37q0 -22 16 -35.5t45 -13.5q16 0 31 4.5t27 14.5t18.5 24.5
t6.5 33.5v142z" />
    <glyph glyph-name="uni1EA8" unicode="&#x1ea8;" horiz-adv-x="677" 
d="M517 719h-114l-65 84l-65 -84h-113l103 162h151zM515 806l-37 50q28 12 40 24.5t12 28.5q0 14 -8.5 23t-25.5 9q-14 0 -23 -7t-16 -21l-77 38q12 39 46 60t83 21q31 0 58.5 -11.5t44 -34.5t16.5 -56q0 -35 -17 -60t-43 -40.5t-53 -23.5zM673 0h-177l-46 149h-226
l-47 -149h-173l232 660h206zM256 266h162l-81 267z" />
    <glyph glyph-name="uni1EA9" unicode="&#x1ea9;" 
d="M455 559h-113l-65 84l-65 -84h-114l103 162h151zM454 646l-37 50q27 12 39 24.5t12 28.5q0 14 -8.5 23t-25.5 9q-14 0 -23 -7t-15 -21l-78 38q13 39 47 60t82 21q32 0 59 -11.5t43.5 -34.5t16.5 -56q0 -35 -17 -60t-43 -40.5t-52 -23.5zM340 316q0 37 -18.5 57t-53.5 20
q-33 0 -56 -16.5t-31 -57.5l-142 32q12 73 72.5 116t167.5 43q73 0 124.5 -22t78.5 -62.5t27 -98.5v-190q0 -39 38 -39q15 0 25 4l-7 -96q-30 -15 -74 -15q-40 0 -71 12.5t-48.5 38t-17.5 65.5v10l21 -2q-6 -38 -31.5 -66t-63.5 -43.5t-82 -15.5q-49 0 -86 15.5t-57.5 46
t-20.5 72.5q0 56 36 91t102 48l184 37l-1 -75l-96 -21q-33 -7 -48 -21t-15 -37q0 -22 16 -35.5t45 -13.5q16 0 31 4.5t27 14.5t18.5 24.5t6.5 33.5v142z" />
    <glyph glyph-name="uni1EAA" unicode="&#x1eaa;" horiz-adv-x="677" 
d="M517 719h-114l-65 84l-65 -84h-113l103 162h151zM522 1050q-3 -74 -36 -109.5t-78 -35.5q-27 0 -45.5 8t-32 18t-25.5 18t-26 8q-16 0 -24 -12t-11 -38h-89q3 75 36.5 110t84.5 35q25 0 42.5 -8t30.5 -18t24 -18t25 -8q15 0 23.5 12t11.5 38h89zM673 0h-177l-46 149h-226
l-47 -149h-173l232 660h206zM256 266h162l-81 267z" />
    <glyph glyph-name="uni1EAB" unicode="&#x1eab;" 
d="M455 559h-113l-65 84l-65 -84h-114l103 162h151zM460 890q-3 -74 -35.5 -109.5t-78.5 -35.5q-26 0 -44.5 8t-32.5 18t-26 18t-26 8q-15 0 -23.5 -12t-11.5 -38h-89q4 75 37 110t84 35q25 0 43 -8t30.5 -18t24 -18t24.5 -8q16 0 24 12t11 38h89zM340 316q0 37 -18.5 57
t-53.5 20q-33 0 -56 -16.5t-31 -57.5l-142 32q12 73 72.5 116t167.5 43q73 0 124.5 -22t78.5 -62.5t27 -98.5v-190q0 -39 38 -39q15 0 25 4l-7 -96q-30 -15 -74 -15q-40 0 -71 12.5t-48.5 38t-17.5 65.5v10l21 -2q-6 -38 -31.5 -66t-63.5 -43.5t-82 -15.5q-49 0 -86 15.5
t-57.5 46t-20.5 72.5q0 56 36 91t102 48l184 37l-1 -75l-96 -21q-33 -7 -48 -21t-15 -37q0 -22 16 -35.5t45 -13.5q16 0 31 4.5t27 14.5t18.5 24.5t6.5 33.5v142z" />
    <glyph glyph-name="uni1EAC" unicode="&#x1eac;" horiz-adv-x="677" 
d="M673 0h-177l-46 149h-226l-47 -149h-173l232 660h206zM256 266h162l-81 267zM338 -222q-44 0 -67.5 20.5t-23.5 59.5t23.5 60t67.5 21q46 0 69.5 -21t23.5 -60t-23.5 -59.5t-69.5 -20.5zM521 723h-118l-65 92l-65 -92h-118l100 163h166z" />
    <glyph glyph-name="uni1EAD" unicode="&#x1ead;" 
d="M340 317q0 35 -19.5 55.5t-52.5 20.5t-56.5 -16.5t-32.5 -58.5l-144 34q14 72 74 115t169 43q73 0 124.5 -21.5t79 -64t27.5 -104.5v-183q0 -39 35 -39q18 0 29 4l-10 -97q-30 -14 -73 -14q-39 0 -69 12.5t-47 38t-17 64.5v6l19 7q0 -43 -25.5 -72t-66 -43t-84.5 -14
q-51 0 -89 16t-58.5 46.5t-20.5 75.5q0 54 32.5 89.5t102.5 49.5l189 39l-1 -90l-96 -20q-30 -6 -44.5 -17.5t-14.5 -34.5q0 -22 16 -33t38 -11q17 0 32.5 5t27.5 15.5t19 26.5t7 38v132zM281 -222q-44 0 -67.5 20.5t-23.5 59.5t23.5 60t67.5 21q46 0 69.5 -21t23.5 -60
t-23.5 -59.5t-69.5 -20.5zM468 559h-122l-69 88l-69 -88h-122l109 173h164z" />
    <glyph glyph-name="uni1EAE" unicode="&#x1eae;" horiz-adv-x="677" 
d="M497 868q0 -72 -43 -112.5t-116 -40.5q-72 0 -115 40.5t-43 112.5h101q1 -29 15 -47.5t42 -18.5q29 0 43 18.5t15 47.5h101zM268 889l52 143h139l-79 -143h-112zM673 0h-177l-46 149h-226l-47 -149h-173l232 660h206zM256 266h162l-81 267z" />
    <glyph glyph-name="uni1EAF" unicode="&#x1eaf;" 
d="M435 708q0 -72 -43 -112.5t-115 -40.5q-73 0 -116 40.5t-43 112.5h101q1 -29 15.5 -47.5t42.5 -18.5t42 18.5t15 47.5h101zM206 729l52 143h139l-79 -143h-112zM340 316q0 37 -18.5 57t-53.5 20q-33 0 -56 -16.5t-31 -57.5l-142 32q12 73 72.5 116t167.5 43
q73 0 124.5 -22t78.5 -62.5t27 -98.5v-190q0 -39 38 -39q15 0 25 4l-7 -96q-30 -15 -74 -15q-40 0 -71 12.5t-48.5 38t-17.5 65.5v10l21 -2q-6 -38 -31.5 -66t-63.5 -43.5t-82 -15.5q-49 0 -86 15.5t-57.5 46t-20.5 72.5q0 56 36 91t102 48l184 37l-1 -75l-96 -21
q-33 -7 -48 -21t-15 -37q0 -22 16 -35.5t45 -13.5q16 0 31 4.5t27 14.5t18.5 24.5t6.5 33.5v142z" />
    <glyph glyph-name="uni1EB0" unicode="&#x1eb0;" horiz-adv-x="677" 
d="M497 868q0 -72 -43 -112.5t-116 -40.5q-72 0 -115 40.5t-43 112.5h101q1 -29 15 -47.5t42 -18.5q29 0 43 18.5t15 47.5h101zM410 889h-113l-79 143h139zM673 0h-177l-46 149h-226l-47 -149h-173l232 660h206zM256 266h162l-81 267z" />
    <glyph glyph-name="uni1EB1" unicode="&#x1eb1;" 
d="M435 708q0 -72 -43 -112.5t-115 -40.5q-73 0 -116 40.5t-43 112.5h101q1 -29 15.5 -47.5t42.5 -18.5t42 18.5t15 47.5h101zM348 729h-113l-79 143h139zM340 316q0 37 -18.5 57t-53.5 20q-33 0 -56 -16.5t-31 -57.5l-142 32q12 73 72.5 116t167.5 43q73 0 124.5 -22
t78.5 -62.5t27 -98.5v-190q0 -39 38 -39q15 0 25 4l-7 -96q-30 -15 -74 -15q-40 0 -71 12.5t-48.5 38t-17.5 65.5v10l21 -2q-6 -38 -31.5 -66t-63.5 -43.5t-82 -15.5q-49 0 -86 15.5t-57.5 46t-20.5 72.5q0 56 36 91t102 48l184 37l-1 -75l-96 -21q-33 -7 -48 -21t-15 -37
q0 -22 16 -35.5t45 -13.5q16 0 31 4.5t27 14.5t18.5 24.5t6.5 33.5v142z" />
    <glyph glyph-name="uni1EB2" unicode="&#x1eb2;" horiz-adv-x="677" 
d="M497 868q0 -72 -43 -112.5t-116 -40.5q-72 0 -115 40.5t-43 112.5h101q1 -29 15 -47.5t42 -18.5q29 0 43 18.5t15 47.5h101zM339 873l-34 47q26 11 37 23t11 27q0 13 -8 21.5t-24 8.5q-13 0 -22 -6.5t-15 -19.5l-72 36q12 36 44 56t77 20q30 0 55.5 -11.5t41 -33
t15.5 -51.5q0 -33 -16 -56.5t-40 -38t-50 -22.5zM673 0h-177l-46 149h-226l-47 -149h-173l232 660h206zM256 266h162l-81 267z" />
    <glyph glyph-name="uni1EB3" unicode="&#x1eb3;" 
d="M435 708q0 -72 -43 -112.5t-115 -40.5q-73 0 -116 40.5t-43 112.5h101q1 -29 15.5 -47.5t42.5 -18.5t42 18.5t15 47.5h101zM278 713l-35 47q26 11 37 23t11 27q0 13 -7.5 21.5t-23.5 8.5q-14 0 -22.5 -6.5t-14.5 -19.5l-73 36q12 36 44 56t78 20q29 0 54.5 -11.5t41 -33
t15.5 -51.5q0 -33 -16 -56.5t-40 -38t-49 -22.5zM340 316q0 37 -18.5 57t-53.5 20q-33 0 -56 -16.5t-31 -57.5l-142 32q12 73 72.5 116t167.5 43q73 0 124.5 -22t78.5 -62.5t27 -98.5v-190q0 -39 38 -39q15 0 25 4l-7 -96q-30 -15 -74 -15q-40 0 -71 12.5t-48.5 38
t-17.5 65.5v10l21 -2q-6 -38 -31.5 -66t-63.5 -43.5t-82 -15.5q-49 0 -86 15.5t-57.5 46t-20.5 72.5q0 56 36 91t102 48l184 37l-1 -75l-96 -21q-33 -7 -48 -21t-15 -37q0 -22 16 -35.5t45 -13.5q16 0 31 4.5t27 14.5t18.5 24.5t6.5 33.5v142z" />
    <glyph glyph-name="uni1EB4" unicode="&#x1eb4;" horiz-adv-x="677" 
d="M497 868q0 -72 -43 -112.5t-115 -40.5q-73 0 -115.5 40.5t-42.5 112.5h101q0 -29 14.5 -47.5t42.5 -18.5t42.5 18.5t14.5 47.5h101zM522 1039q-3 -74 -35.5 -109t-78.5 -35q-26 0 -44.5 7.5t-32.5 17.5t-26 18t-25 8q-16 0 -24 -12t-12 -37h-88q3 74 36.5 109t83.5 35
q26 0 43.5 -8t30.5 -18t24 -17.5t25 -7.5q15 0 23 12t12 37h88zM673 0h-177l-46 149h-226l-47 -149h-173l232 660h206zM256 266h162l-81 267z" />
    <glyph glyph-name="uni1EB5" unicode="&#x1eb5;" 
d="M435 708q0 -72 -43 -112.5t-116 -40.5q-72 0 -115 40.5t-43 112.5h101q1 -29 15 -47.5t42 -18.5q29 0 43 18.5t15 47.5h101zM460 879q-3 -74 -36 -109t-78 -35q-27 0 -45.5 7.5t-32 17.5t-25.5 18t-26 8q-16 0 -24 -12t-11 -37h-89q3 74 36.5 109t84.5 35q25 0 42.5 -8
t30.5 -18t24 -17.5t25 -7.5q15 0 23.5 12t11.5 37h89zM340 316q0 37 -18.5 57t-53.5 20q-33 0 -56 -16.5t-31 -57.5l-142 32q12 73 72.5 116t167.5 43q73 0 124.5 -22t78.5 -62.5t27 -98.5v-190q0 -39 38 -39q15 0 25 4l-7 -96q-30 -15 -74 -15q-40 0 -71 12.5t-48.5 38
t-17.5 65.5v10l21 -2q-6 -38 -31.5 -66t-63.5 -43.5t-82 -15.5q-49 0 -86 15.5t-57.5 46t-20.5 72.5q0 56 36 91t102 48l184 37l-1 -75l-96 -21q-33 -7 -48 -21t-15 -37q0 -22 16 -35.5t45 -13.5q16 0 31 4.5t27 14.5t18.5 24.5t6.5 33.5v142z" />
    <glyph glyph-name="uni1EB6" unicode="&#x1eb6;" horiz-adv-x="677" 
d="M673 0h-177l-46 149h-226l-47 -149h-173l232 660h206zM256 266h162l-81 267zM338 -222q-44 0 -67.5 20.5t-23.5 59.5t23.5 60t67.5 21q46 0 69.5 -21t23.5 -60t-23.5 -59.5t-69.5 -20.5zM507 878q0 -76 -45.5 -119.5t-123.5 -43.5q-77 0 -123 43.5t-46 119.5h109
q1 -30 16 -49t44 -19q30 0 44.5 19t15.5 49h109z" />
    <glyph glyph-name="uni1EB7" unicode="&#x1eb7;" 
d="M340 317q0 35 -19.5 55.5t-52.5 20.5t-56.5 -16.5t-32.5 -58.5l-144 34q14 72 74 115t169 43q73 0 124.5 -21.5t79 -64t27.5 -104.5v-183q0 -39 35 -39q18 0 29 4l-10 -97q-30 -14 -73 -14q-39 0 -69 12.5t-47 38t-17 64.5v6l19 7q0 -43 -25.5 -72t-66 -43t-84.5 -14
q-51 0 -89 16t-58.5 46.5t-20.5 75.5q0 54 32.5 89.5t102.5 49.5l189 39l-1 -90l-96 -20q-30 -6 -44.5 -17.5t-14.5 -34.5q0 -22 16 -33t38 -11q17 0 32.5 5t27.5 15.5t19 26.5t7 38v132zM281 -222q-44 0 -67.5 20.5t-23.5 59.5t23.5 60t67.5 21q46 0 69.5 -21t23.5 -60
t-23.5 -59.5t-69.5 -20.5zM446 718q0 -76 -45.5 -119.5t-123.5 -43.5q-77 0 -123 43.5t-46 119.5h109q1 -30 16 -49t44 -19q30 0 44.5 19t15.5 49h109z" />
    <glyph glyph-name="uni1EB8" unicode="&#x1eb8;" horiz-adv-x="631" 
d="M73 0v660h514v-133h-342v-134h272v-125h-272v-135h355v-133h-527zM343 -222q-44 0 -67.5 20.5t-23.5 59.5t23.5 60t67.5 21q46 0 69.5 -21t23.5 -60t-23.5 -59.5t-69.5 -20.5z" />
    <glyph glyph-name="uni1EB9" unicode="&#x1eb9;" 
d="M305 -10q-83 0 -143.5 31t-93.5 89t-33 140t33 140t92.5 89t136.5 31q79 0 134.5 -30.5t84.5 -84t29 -122.5q0 -18 -1 -36t-3 -30h-396v91h321l-81 -31q0 60 -21.5 92t-66.5 32q-32 0 -54.5 -15t-34 -47t-11.5 -82q0 -49 13 -79.5t37 -44t58 -13.5q38 0 60.5 15t33.5 42
l136 -45q-14 -43 -48.5 -72.5t-82 -44.5t-99.5 -15zM298 -222q-44 0 -67.5 20.5t-23.5 59.5t23.5 60t67.5 21q46 0 69.5 -21t23.5 -60t-23.5 -59.5t-69.5 -20.5z" />
    <glyph glyph-name="uni1EBA" unicode="&#x1eba;" horiz-adv-x="631" 
d="M73 0v660h514v-133h-342v-134h272v-125h-272v-135h355v-133h-527zM332 700l-37 50q28 12 39.5 24.5t11.5 28.5q0 14 -8.5 23t-24.5 9q-15 0 -24 -7t-15 -21l-78 38q13 39 47 60t82 21q32 0 59 -11.5t43.5 -34.5t16.5 -56q0 -35 -17 -60t-43 -40.5t-52 -23.5z" />
    <glyph glyph-name="uni1EBB" unicode="&#x1ebb;" 
d="M305 -10q-83 0 -143.5 31t-93.5 89t-33 140t33 140t92.5 89t136.5 31q79 0 134.5 -30.5t84.5 -84t29 -122.5q0 -18 -1 -36t-3 -30h-396v91h321l-81 -31q0 60 -21.5 92t-66.5 32q-32 0 -54.5 -15t-34 -47t-11.5 -82q0 -49 13 -79.5t37 -44t58 -13.5q38 0 60.5 15t33.5 42
l136 -45q-14 -43 -48.5 -72.5t-82 -44.5t-99.5 -15zM290 544l-37 52q29 13 41.5 25.5t12.5 28.5q0 14 -9 23.5t-26 9.5q-13 0 -22.5 -7.5t-16.5 -21.5l-77 38q12 40 46.5 61.5t82.5 21.5q32 0 59.5 -12t44 -35.5t16.5 -56.5q0 -36 -17 -61t-43.5 -41t-54.5 -25z" />
    <glyph glyph-name="uni1EBC" unicode="&#x1ebc;" horiz-adv-x="631" 
d="M73 0v660h514v-133h-342v-134h272v-125h-272v-135h355v-133h-527zM528 878q-2 -53 -18.5 -88.5t-44 -53t-60.5 -17.5q-28 0 -48.5 8.5t-35.5 20t-28 20t-28 8.5q-17 0 -26 -14t-12 -42h-96q3 80 39 119.5t92 39.5q27 0 46 -8.5t33 -20t26.5 -20t26.5 -8.5q18 0 26.5 14
t11.5 42h96z" />
    <glyph glyph-name="uni1EBD" unicode="&#x1ebd;" 
d="M305 -10q-83 0 -143.5 31t-93.5 89t-33 140t33 140t92.5 89t136.5 31q79 0 134.5 -30.5t84.5 -84t29 -122.5q0 -18 -1 -36t-3 -30h-396v91h321l-81 -31q0 60 -21.5 92t-66.5 32q-32 0 -54.5 -15t-34 -47t-11.5 -82q0 -49 13 -79.5t37 -44t58 -13.5q38 0 60.5 15t33.5 42
l136 -45q-14 -43 -48.5 -72.5t-82 -44.5t-99.5 -15zM492 718q-2 -53 -18.5 -88.5t-44 -53t-60.5 -17.5q-28 0 -48.5 8.5t-35.5 20t-28 20t-28 8.5q-17 0 -26 -14t-12 -42h-96q3 80 39 119.5t92 39.5q27 0 46 -8.5t33 -20t26.5 -20t26.5 -8.5q18 0 26.5 14t11.5 42h96z" />
    <glyph glyph-name="uni1EBE" unicode="&#x1ebe;" horiz-adv-x="631" 
d="M509 719h-114l-65 84l-65 -84h-113l103 162h151zM533 970h137l-80 -148h-112zM73 0v660h514v-133h-342v-134h272v-125h-272v-135h355v-133h-527z" />
    <glyph glyph-name="uni1EBF" unicode="&#x1ebf;" 
d="M497 810h136l-80 -148h-111zM473 559h-114l-65 84l-65 -84h-114l103 162h152zM304 -10q-82 0 -142.5 30.5t-93.5 89t-33 140.5t33 140.5t92.5 89t136.5 30.5q79 0 134.5 -30.5t84.5 -84t29 -122.5q0 -17 -1.5 -32.5t-3.5 -26.5h-395v80h321l-81 -29q0 61 -21.5 93.5
t-66.5 32.5q-32 0 -54.5 -15t-34 -47t-11.5 -81q0 -50 13 -80.5t37 -44t58 -13.5q38 0 60.5 15t33.5 42l137 -45q-15 -43 -49.5 -72.5t-81.5 -44.5t-101 -15z" />
    <glyph glyph-name="uni1EC0" unicode="&#x1ec0;" horiz-adv-x="631" 
d="M509 719h-114l-65 84l-65 -84h-113l103 162h151zM553 970l55 -148h-112l-80 148h137zM73 0v660h514v-133h-342v-134h272v-125h-272v-135h355v-133h-527z" />
    <glyph glyph-name="uni1EC1" unicode="&#x1ec1;" 
d="M516 810l55 -148h-111l-80 148h136zM473 559h-114l-65 84l-65 -84h-114l103 162h152zM304 -10q-82 0 -142.5 30.5t-93.5 89t-33 140.5t33 140.5t92.5 89t136.5 30.5q79 0 134.5 -30.5t84.5 -84t29 -122.5q0 -17 -1.5 -32.5t-3.5 -26.5h-395v80h321l-81 -29
q0 61 -21.5 93.5t-66.5 32.5q-32 0 -54.5 -15t-34 -47t-11.5 -81q0 -50 13 -80.5t37 -44t58 -13.5q38 0 60.5 15t33.5 42l137 -45q-15 -43 -49.5 -72.5t-81.5 -44.5t-101 -15z" />
    <glyph glyph-name="uni1EC2" unicode="&#x1ec2;" horiz-adv-x="631" 
d="M509 719h-114l-65 84l-65 -84h-113l103 162h151zM507 806l-37 50q28 12 40 24.5t12 28.5q0 14 -8.5 23t-25.5 9q-14 0 -23 -7t-16 -21l-77 38q12 39 46 60t83 21q31 0 58.5 -11.5t44 -34.5t16.5 -56q0 -35 -17 -60t-43 -40.5t-53 -23.5zM73 0v660h514v-133h-342v-134h272
v-125h-272v-135h355v-133h-527z" />
    <glyph glyph-name="uni1EC3" unicode="&#x1ec3;" 
d="M471 646l-37 50q28 12 39.5 24.5t11.5 28.5q0 14 -8.5 23t-24.5 9q-15 0 -23.5 -7t-15.5 -21l-78 38q13 39 47 60t82 21q32 0 59 -11.5t43.5 -34.5t16.5 -56q0 -35 -16.5 -60t-42.5 -40.5t-53 -23.5zM473 559h-114l-65 84l-65 -84h-114l103 162h152zM304 -10
q-82 0 -142.5 30.5t-93.5 89t-33 140.5t33 140.5t92.5 89t136.5 30.5q79 0 134.5 -30.5t84.5 -84t29 -122.5q0 -17 -1.5 -32.5t-3.5 -26.5h-395v80h321l-81 -29q0 61 -21.5 93.5t-66.5 32.5q-32 0 -54.5 -15t-34 -47t-11.5 -81q0 -50 13 -80.5t37 -44t58 -13.5q38 0 60.5 15
t33.5 42l137 -45q-15 -43 -49.5 -72.5t-81.5 -44.5t-101 -15z" />
    <glyph glyph-name="uni1EC4" unicode="&#x1ec4;" horiz-adv-x="631" 
d="M509 719h-114l-65 84l-65 -84h-113l103 162h151zM514 1050q-3 -74 -36 -109.5t-78 -35.5q-27 0 -45.5 8t-32 18t-25.5 18t-26 8q-16 0 -24 -12t-11 -38h-89q3 75 36.5 110t84.5 35q25 0 42.5 -8t30.5 -18t24 -18t25 -8q15 0 23.5 12t11.5 38h89zM73 0v660h514v-133h-342
v-134h272v-125h-272v-135h355v-133h-527z" />
    <glyph glyph-name="uni1EC5" unicode="&#x1ec5;" 
d="M473 559h-114l-65 84l-65 -84h-114l103 162h152zM478 890q-4 -74 -36.5 -109.5t-78.5 -35.5q-26 0 -44.5 8t-32.5 18t-26 18t-25 8q-16 0 -24 -12t-11 -38h-89q3 75 36.5 110t84.5 35q25 0 42.5 -8t30.5 -18t24 -18t25 -8q15 0 23.5 12t11.5 38h89zM304 -10
q-82 0 -142.5 30.5t-93.5 89t-33 140.5t33 140.5t92.5 89t136.5 30.5q79 0 134.5 -30.5t84.5 -84t29 -122.5q0 -17 -1.5 -32.5t-3.5 -26.5h-395v80h321l-81 -29q0 61 -21.5 93.5t-66.5 32.5q-32 0 -54.5 -15t-34 -47t-11.5 -81q0 -50 13 -80.5t37 -44t58 -13.5q38 0 60.5 15
t33.5 42l137 -45q-15 -43 -49.5 -72.5t-81.5 -44.5t-101 -15z" />
    <glyph glyph-name="uni1EC6" unicode="&#x1ec6;" horiz-adv-x="631" 
d="M73 0v660h514v-133h-342v-134h272v-125h-272v-135h355v-133h-527zM343 -222q-44 0 -67.5 20.5t-23.5 59.5t23.5 60t67.5 21q46 0 69.5 -21t23.5 -60t-23.5 -59.5t-69.5 -20.5zM513 723h-118l-65 92l-65 -92h-118l100 163h166z" />
    <glyph glyph-name="uni1EC7" unicode="&#x1ec7;" 
d="M305 -10q-83 0 -143.5 31t-93.5 89t-33 140t33 140t92.5 89t136.5 31q79 0 134.5 -30.5t84.5 -84t29 -122.5q0 -18 -1 -36t-3 -30h-396v91h321l-81 -31q0 60 -21.5 92t-66.5 32q-32 0 -54.5 -15t-34 -47t-11.5 -82q0 -49 13 -79.5t37 -44t58 -13.5q38 0 60.5 15t33.5 42
l136 -45q-14 -43 -48.5 -72.5t-82 -44.5t-99.5 -15zM298 -222q-44 0 -67.5 20.5t-23.5 59.5t23.5 60t67.5 21q46 0 69.5 -21t23.5 -60t-23.5 -59.5t-69.5 -20.5zM485 559h-122l-69 88l-69 -88h-122l109 173h164z" />
    <glyph glyph-name="uni1EC8" unicode="&#x1ec8;" horiz-adv-x="318" 
d="M245 660v-660h-172v660h172zM160 700l-37 50q28 12 39.5 24.5t11.5 28.5q0 14 -8.5 23t-24.5 9q-15 0 -24 -7t-15 -21l-78 38q13 39 47 60t82 21q32 0 59 -11.5t43.5 -34.5t16.5 -56q0 -35 -17 -60t-43 -40.5t-52 -23.5z" />
    <glyph glyph-name="uni1EC9" unicode="&#x1ec9;" horiz-adv-x="291" 
d="M231 500v-500h-170v500h170zM142 544l-37 52q29 13 41.5 25.5t12.5 28.5q0 14 -9 23.5t-26 9.5q-13 0 -22.5 -7.5t-16.5 -21.5l-77 38q12 40 46.5 61.5t82.5 21.5q32 0 59.5 -12t44 -35.5t16.5 -56.5q0 -36 -17 -61t-43.5 -41t-54.5 -25z" />
    <glyph glyph-name="uni1ECA" unicode="&#x1eca;" horiz-adv-x="318" 
d="M245 660v-660h-172v660h172zM159 -222q-44 0 -67.5 20.5t-23.5 59.5t23.5 60t67.5 21q46 0 69.5 -21t23.5 -60t-23.5 -59.5t-69.5 -20.5z" />
    <glyph glyph-name="uni1ECB" unicode="&#x1ecb;" horiz-adv-x="291" 
d="M146 558q-52 0 -75.5 19.5t-23.5 61.5q0 43 23.5 62.5t75.5 19.5q51 0 75 -19.5t24 -62.5q0 -42 -24 -61.5t-75 -19.5zM231 500v-500h-170v500h170zM146 -222q-44 0 -67.5 20.5t-23.5 59.5t23.5 60t67.5 21q46 0 69.5 -21t23.5 -60t-23.5 -59.5t-69.5 -20.5z" />
    <glyph glyph-name="uni1ECC" unicode="&#x1ecc;" horiz-adv-x="737" 
d="M369 670q100 0 172.5 -40.5t111.5 -116.5t39 -183t-39 -183t-111.5 -116.5t-172.5 -40.5t-173 40.5t-112 116.5t-39 183t39 183t112 116.5t173 40.5zM369 535q-48 0 -81 -23t-50 -68.5t-17 -113.5q0 -67 17 -113t50 -69t81 -23t80.5 23t49.5 69t17 113q0 68 -17 113.5
t-49.5 68.5t-80.5 23zM369 -222q-44 0 -67.5 20.5t-23.5 59.5t23.5 60t67.5 21q46 0 69.5 -21t23.5 -60t-23.5 -59.5t-69.5 -20.5z" />
    <glyph glyph-name="uni1ECD" unicode="&#x1ecd;" horiz-adv-x="599" 
d="M299 510q79 0 138.5 -30.5t93 -89t33.5 -140.5t-33.5 -140.5t-93 -89t-138.5 -30.5q-77 0 -137 30.5t-93.5 89t-33.5 140.5t33.5 140.5t93.5 89t137 30.5zM299 389q-29 0 -50 -14t-32 -45t-11 -80t11 -79.5t32 -45t50 -14.5q30 0 51 14.5t32 45t11 79.5t-11 80t-32 45
t-51 14zM299 -222q-44 0 -67.5 20.5t-23.5 59.5t23.5 60t67.5 21q46 0 69.5 -21t23.5 -60t-23.5 -59.5t-69.5 -20.5z" />
    <glyph glyph-name="uni1ECE" unicode="&#x1ece;" horiz-adv-x="737" 
d="M369 670q100 0 172.5 -40.5t111.5 -116.5t39 -183t-39 -183t-111.5 -116.5t-172.5 -40.5t-173 40.5t-112 116.5t-39 183t39 183t112 116.5t173 40.5zM369 535q-48 0 -81 -23t-50 -68.5t-17 -113.5q0 -67 17 -113t50 -69t81 -23t80.5 23t49.5 69t17 113q0 68 -17 113.5
t-49.5 68.5t-80.5 23zM370 700l-37 50q28 12 39.5 24.5t11.5 28.5q0 14 -8.5 23t-24.5 9q-15 0 -24 -7t-15 -21l-78 38q13 39 47 60t82 21q32 0 59 -11.5t43.5 -34.5t16.5 -56q0 -35 -17 -60t-43 -40.5t-52 -23.5z" />
    <glyph glyph-name="uni1ECF" unicode="&#x1ecf;" horiz-adv-x="599" 
d="M299 510q79 0 138.5 -30.5t93 -89t33.5 -140.5t-33.5 -140.5t-93 -89t-138.5 -30.5q-77 0 -137 30.5t-93.5 89t-33.5 140.5t33.5 140.5t93.5 89t137 30.5zM299 389q-29 0 -50 -14t-32 -45t-11 -80t11 -79.5t32 -45t50 -14.5q30 0 51 14.5t32 45t11 79.5t-11 80t-32 45
t-51 14zM296 544l-37 52q29 13 41.5 25.5t12.5 28.5q0 14 -9 23.5t-26 9.5q-13 0 -22.5 -7.5t-16.5 -21.5l-77 38q12 40 46.5 61.5t82.5 21.5q32 0 59.5 -12t44 -35.5t16.5 -56.5q0 -36 -17 -61t-43.5 -41t-54.5 -25z" />
    <glyph glyph-name="uni1ED0" unicode="&#x1ed0;" horiz-adv-x="737" 
d="M547 719h-113l-65 84l-65 -84h-114l103 162h151zM572 970h136l-80 -148h-112zM369 670q100 0 172.5 -40.5t111.5 -116.5t39 -183t-39 -183t-111.5 -116.5t-172.5 -40.5t-173 40.5t-112 116.5t-39 183t39 183t112 116.5t173 40.5zM369 535q-48 0 -81 -23t-50 -68.5
t-17 -113.5q0 -67 17 -113t50 -69t81 -23t80.5 23t49.5 69t17 113q0 68 -17 113.5t-49.5 68.5t-80.5 23z" />
    <glyph glyph-name="uni1ED1" unicode="&#x1ed1;" horiz-adv-x="599" 
d="M502 810h137l-80 -148h-112zM478 559h-114l-65 84l-65 -84h-113l103 162h151zM299 510q79 0 138.5 -30.5t93 -89t33.5 -140.5t-33.5 -140.5t-93 -89t-138.5 -30.5q-77 0 -137 30.5t-93.5 89t-33.5 140.5t33.5 140.5t93.5 89t137 30.5zM299 389q-29 0 -50 -14t-32 -45
t-11 -80t11 -79.5t32 -45t50 -14.5q30 0 51 14.5t32 45t11 79.5t-11 80t-32 45t-51 14z" />
    <glyph glyph-name="uni1ED2" unicode="&#x1ed2;" horiz-adv-x="737" 
d="M547 719h-113l-65 84l-65 -84h-114l103 162h151zM591 970l55 -148h-111l-80 148h136zM369 670q100 0 172.5 -40.5t111.5 -116.5t39 -183t-39 -183t-111.5 -116.5t-172.5 -40.5t-173 40.5t-112 116.5t-39 183t39 183t112 116.5t173 40.5zM369 535q-48 0 -81 -23t-50 -68.5
t-17 -113.5q0 -67 17 -113t50 -69t81 -23t80.5 23t49.5 69t17 113q0 68 -17 113.5t-49.5 68.5t-80.5 23z" />
    <glyph glyph-name="uni1ED3" unicode="&#x1ed3;" horiz-adv-x="599" 
d="M522 810l55 -148h-112l-80 148h137zM478 559h-114l-65 84l-65 -84h-113l103 162h151zM299 510q79 0 138.5 -30.5t93 -89t33.5 -140.5t-33.5 -140.5t-93 -89t-138.5 -30.5q-77 0 -137 30.5t-93.5 89t-33.5 140.5t33.5 140.5t93.5 89t137 30.5zM299 389q-29 0 -50 -14
t-32 -45t-11 -80t11 -79.5t32 -45t50 -14.5q30 0 51 14.5t32 45t11 79.5t-11 80t-32 45t-51 14z" />
    <glyph glyph-name="uni1ED4" unicode="&#x1ed4;" horiz-adv-x="737" 
d="M547 719h-113l-65 84l-65 -84h-114l103 162h151zM546 806l-37 50q27 12 39 24.5t12 28.5q0 14 -8.5 23t-25.5 9q-14 0 -23 -7t-15 -21l-78 38q13 39 47 60t82 21q32 0 59 -11.5t43.5 -34.5t16.5 -56q0 -35 -17 -60t-43 -40.5t-52 -23.5zM369 670q100 0 172.5 -40.5
t111.5 -116.5t39 -183t-39 -183t-111.5 -116.5t-172.5 -40.5t-173 40.5t-112 116.5t-39 183t39 183t112 116.5t173 40.5zM369 535q-48 0 -81 -23t-50 -68.5t-17 -113.5q0 -67 17 -113t50 -69t81 -23t80.5 23t49.5 69t17 113q0 68 -17 113.5t-49.5 68.5t-80.5 23z" />
    <glyph glyph-name="uni1ED5" unicode="&#x1ed5;" horiz-adv-x="599" 
d="M476 646l-37 50q28 12 40 24.5t12 28.5q0 14 -8.5 23t-25.5 9q-14 0 -23 -7t-16 -21l-77 38q12 39 46 60t83 21q31 0 58.5 -11.5t44 -34.5t16.5 -56q0 -35 -17 -60t-43 -40.5t-53 -23.5zM478 559h-114l-65 84l-65 -84h-113l103 162h151zM299 510q79 0 138.5 -30.5t93 -89
t33.5 -140.5t-33.5 -140.5t-93 -89t-138.5 -30.5q-77 0 -137 30.5t-93.5 89t-33.5 140.5t33.5 140.5t93.5 89t137 30.5zM299 389q-29 0 -50 -14t-32 -45t-11 -80t11 -79.5t32 -45t50 -14.5q30 0 51 14.5t32 45t11 79.5t-11 80t-32 45t-51 14z" />
    <glyph glyph-name="uni1ED6" unicode="&#x1ed6;" horiz-adv-x="737" 
d="M547 719h-113l-65 84l-65 -84h-114l103 162h151zM552 1050q-3 -74 -35.5 -109.5t-78.5 -35.5q-26 0 -44.5 8t-32.5 18t-26 18t-26 8q-15 0 -23.5 -12t-11.5 -38h-89q4 75 37 110t84 35q25 0 43 -8t30.5 -18t24 -18t24.5 -8q16 0 24 12t11 38h89zM369 670
q100 0 172.5 -40.5t111.5 -116.5t39 -183t-39 -183t-111.5 -116.5t-172.5 -40.5t-173 40.5t-112 116.5t-39 183t39 183t112 116.5t173 40.5zM369 535q-48 0 -81 -23t-50 -68.5t-17 -113.5q0 -67 17 -113t50 -69t81 -23t80.5 23t49.5 69t17 113q0 68 -17 113.5t-49.5 68.5
t-80.5 23z" />
    <glyph glyph-name="uni1ED7" unicode="&#x1ed7;" horiz-adv-x="599" 
d="M478 559h-114l-65 84l-65 -84h-113l103 162h151zM483 890q-3 -74 -36 -109.5t-78 -35.5q-27 0 -45.5 8t-32 18t-25.5 18t-26 8q-16 0 -24 -12t-11 -38h-89q3 75 36.5 110t84.5 35q25 0 42.5 -8t30.5 -18t24 -18t25 -8q15 0 23.5 12t11.5 38h89zM299 510q79 0 138.5 -30.5
t93 -89t33.5 -140.5t-33.5 -140.5t-93 -89t-138.5 -30.5q-77 0 -137 30.5t-93.5 89t-33.5 140.5t33.5 140.5t93.5 89t137 30.5zM299 389q-29 0 -50 -14t-32 -45t-11 -80t11 -79.5t32 -45t50 -14.5q30 0 51 14.5t32 45t11 79.5t-11 80t-32 45t-51 14z" />
    <glyph glyph-name="uni1ED8" unicode="&#x1ed8;" horiz-adv-x="737" 
d="M369 670q100 0 172.5 -40.5t111.5 -116.5t39 -183t-39 -183t-111.5 -116.5t-172.5 -40.5t-173 40.5t-112 116.5t-39 183t39 183t112 116.5t173 40.5zM369 535q-48 0 -81 -23t-50 -68.5t-17 -113.5q0 -67 17 -113t50 -69t81 -23t80.5 23t49.5 69t17 113q0 68 -17 113.5
t-49.5 68.5t-80.5 23zM369 -222q-44 0 -67.5 20.5t-23.5 59.5t23.5 60t67.5 21q46 0 69.5 -21t23.5 -60t-23.5 -59.5t-69.5 -20.5zM552 723h-118l-65 92l-65 -92h-118l100 163h166z" />
    <glyph glyph-name="uni1ED9" unicode="&#x1ed9;" horiz-adv-x="599" 
d="M299 510q79 0 138.5 -30.5t93 -89t33.5 -140.5t-33.5 -140.5t-93 -89t-138.5 -30.5q-77 0 -137 30.5t-93.5 89t-33.5 140.5t33.5 140.5t93.5 89t137 30.5zM299 389q-29 0 -50 -14t-32 -45t-11 -80t11 -79.5t32 -45t50 -14.5q30 0 51 14.5t32 45t11 79.5t-11 80t-32 45
t-51 14zM299 -222q-44 0 -67.5 20.5t-23.5 59.5t23.5 60t67.5 21q46 0 69.5 -21t23.5 -60t-23.5 -59.5t-69.5 -20.5zM490 559h-122l-69 88l-69 -88h-122l109 173h164z" />
    <glyph glyph-name="uni1EDA" unicode="&#x1eda;" horiz-adv-x="737" 
d="M675 766q0 -96 -53 -149t-158 -53l-8 96q55 0 78 25.5t23 80.5h118zM369 670q100 0 172.5 -40.5t111.5 -116.5t39 -183t-39 -183t-111.5 -116.5t-172.5 -40.5t-173 40.5t-112 116.5t-39 183t39 183t112 116.5t173 40.5zM369 535q-48 0 -81 -23t-50 -68.5t-17 -113.5
q0 -67 17 -113t50 -69t81 -23t80.5 23t49.5 69t17 113q0 68 -17 113.5t-49.5 68.5t-80.5 23zM358 886h152l-89 -163h-124z" />
    <glyph glyph-name="uni1EDB" unicode="&#x1edb;" horiz-adv-x="599" 
d="M299 510q79 0 138.5 -30.5t93 -89t33.5 -140.5t-33.5 -140.5t-93 -89t-138.5 -30.5q-77 0 -137 30.5t-93.5 89t-33.5 140.5t33.5 140.5t93.5 89t137 30.5zM299 389q-29 0 -50 -14t-32 -45t-11 -80t11 -79.5t32 -45t50 -14.5q30 0 51 14.5t32 45t11 79.5t-11 80t-32 45
t-51 14zM382 410v90q31 0 49 25.5t18 84.5h116q0 -103 -48.5 -151.5t-134.5 -48.5zM289 738h158l-101 -173h-124z" />
    <glyph glyph-name="uni1EDC" unicode="&#x1edc;" horiz-adv-x="737" 
d="M675 766q0 -96 -53 -149t-158 -53l-8 96q55 0 78 25.5t23 80.5h118zM369 670q100 0 172.5 -40.5t111.5 -116.5t39 -183t-39 -183t-111.5 -116.5t-172.5 -40.5t-173 40.5t-112 116.5t-39 183t39 183t112 116.5t173 40.5zM369 535q-48 0 -81 -23t-50 -68.5t-17 -113.5
q0 -67 17 -113t50 -69t81 -23t80.5 23t49.5 69t17 113q0 68 -17 113.5t-49.5 68.5t-80.5 23zM380 886l61 -163h-124l-89 163h152z" />
    <glyph glyph-name="uni1EDD" unicode="&#x1edd;" horiz-adv-x="599" 
d="M299 510q79 0 138.5 -30.5t93 -89t33.5 -140.5t-33.5 -140.5t-93 -89t-138.5 -30.5q-77 0 -137 30.5t-93.5 89t-33.5 140.5t33.5 140.5t93.5 89t137 30.5zM299 389q-29 0 -50 -14t-32 -45t-11 -80t11 -79.5t32 -45t50 -14.5q30 0 51 14.5t32 45t11 79.5t-11 80t-32 45
t-51 14zM382 410v90q31 0 49 25.5t18 84.5h116q0 -103 -48.5 -151.5t-134.5 -48.5zM299 738l67 -173h-124l-101 173h158z" />
    <glyph glyph-name="uni1EDE" unicode="&#x1ede;" horiz-adv-x="737" 
d="M675 766q0 -96 -53 -149t-158 -53l-8 96q55 0 78 25.5t23 80.5h118zM369 670q100 0 172.5 -40.5t111.5 -116.5t39 -183t-39 -183t-111.5 -116.5t-172.5 -40.5t-173 40.5t-112 116.5t-39 183t39 183t112 116.5t173 40.5zM369 535q-48 0 -81 -23t-50 -68.5t-17 -113.5
q0 -67 17 -113t50 -69t81 -23t80.5 23t49.5 69t17 113q0 68 -17 113.5t-49.5 68.5t-80.5 23zM370 700l-37 50q28 12 39.5 24.5t11.5 28.5q0 14 -8.5 23t-24.5 9q-15 0 -24 -7t-15 -21l-78 38q13 39 47 60t82 21q32 0 59 -11.5t43.5 -34.5t16.5 -56q0 -35 -17 -60t-43 -40.5
t-52 -23.5z" />
    <glyph glyph-name="uni1EDF" unicode="&#x1edf;" horiz-adv-x="599" 
d="M299 510q79 0 138.5 -30.5t93 -89t33.5 -140.5t-33.5 -140.5t-93 -89t-138.5 -30.5q-77 0 -137 30.5t-93.5 89t-33.5 140.5t33.5 140.5t93.5 89t137 30.5zM299 389q-29 0 -50 -14t-32 -45t-11 -80t11 -79.5t32 -45t50 -14.5q30 0 51 14.5t32 45t11 79.5t-11 80t-32 45
t-51 14zM382 410v90q31 0 49 25.5t18 84.5h116q0 -103 -48.5 -151.5t-134.5 -48.5zM296 544l-37 52q29 13 41.5 25.5t12.5 28.5q0 14 -9 23.5t-26 9.5q-13 0 -22.5 -7.5t-16.5 -21.5l-77 38q12 40 46.5 61.5t82.5 21.5q32 0 59.5 -12t44 -35.5t16.5 -56.5q0 -36 -17 -61
t-43.5 -41t-54.5 -25z" />
    <glyph glyph-name="uni1EE0" unicode="&#x1ee0;" horiz-adv-x="737" 
d="M675 766q0 -96 -53 -149t-158 -53l-8 96q55 0 78 25.5t23 80.5h118zM369 670q100 0 172.5 -40.5t111.5 -116.5t39 -183t-39 -183t-111.5 -116.5t-172.5 -40.5t-173 40.5t-112 116.5t-39 183t39 183t112 116.5t173 40.5zM369 535q-48 0 -81 -23t-50 -68.5t-17 -113.5
q0 -67 17 -113t50 -69t81 -23t80.5 23t49.5 69t17 113q0 68 -17 113.5t-49.5 68.5t-80.5 23zM541 878q-2 -53 -18.5 -88.5t-44 -53t-60.5 -17.5q-28 0 -48.5 8.5t-35.5 20t-28 20t-28 8.5q-17 0 -26 -14t-12 -42h-96q3 80 39 119.5t92 39.5q27 0 46 -8.5t33 -20t26.5 -20
t26.5 -8.5q18 0 26.5 14t11.5 42h96z" />
    <glyph glyph-name="uni1EE1" unicode="&#x1ee1;" horiz-adv-x="599" 
d="M299 510q79 0 138.5 -30.5t93 -89t33.5 -140.5t-33.5 -140.5t-93 -89t-138.5 -30.5q-77 0 -137 30.5t-93.5 89t-33.5 140.5t33.5 140.5t93.5 89t137 30.5zM299 389q-29 0 -50 -14t-32 -45t-11 -80t11 -79.5t32 -45t50 -14.5q30 0 51 14.5t32 45t11 79.5t-11 80t-32 45
t-51 14zM382 410v90q31 0 49 25.5t18 84.5h116q0 -103 -48.5 -151.5t-134.5 -48.5zM456 718q-2 -53 -18.5 -88.5t-44 -53t-60.5 -17.5q-28 0 -48.5 8.5t-35.5 20t-28 20t-28 8.5q-17 0 -26 -14t-12 -42h-96q3 80 39 119.5t92 39.5q27 0 46 -8.5t33 -20t26.5 -20t26.5 -8.5
q18 0 26.5 14t11.5 42h96z" />
    <glyph glyph-name="uni1EE2" unicode="&#x1ee2;" horiz-adv-x="737" 
d="M675 766q0 -96 -53 -149t-158 -53l-8 96q55 0 78 25.5t23 80.5h118zM369 670q100 0 172.5 -40.5t111.5 -116.5t39 -183t-39 -183t-111.5 -116.5t-172.5 -40.5t-173 40.5t-112 116.5t-39 183t39 183t112 116.5t173 40.5zM369 535q-48 0 -81 -23t-50 -68.5t-17 -113.5
q0 -67 17 -113t50 -69t81 -23t80.5 23t49.5 69t17 113q0 68 -17 113.5t-49.5 68.5t-80.5 23zM369 -222q-44 0 -67.5 20.5t-23.5 59.5t23.5 60t67.5 21q46 0 69.5 -21t23.5 -60t-23.5 -59.5t-69.5 -20.5z" />
    </font>
</defs>
</svg>
